<?xml version="1.0" standalone="no"?>
<!DOCTYPE svg PUBLIC "-//W3C//DTD SVG 1.1//EN" "http://www.w3.org/Graphics/SVG/1.1/DTD/svg11.dtd" >
<svg xmlns="http://www.w3.org/2000/svg" xmlns:xlink="http://www.w3.org/1999/xlink" version="1.1">
<metadata></metadata>
<defs>
<font id="ingeborgregular" horiz-adv-x="1486" >
<font-face units-per-em="2048" ascent="1536" descent="-512" />
<missing-glyph horiz-adv-x="493" />
<glyph unicode="&#xfb01;" horiz-adv-x="1267" d="M55 854v80h191v59q0 126 27.5 223t72.5 157.5t110 98.5t133.5 53t149.5 15q159 0 249.5 -69t90.5 -166q0 -68 -34.5 -108t-92.5 -40q-47 0 -76.5 26.5t-29.5 71.5q0 35 16 60.5t32 34.5l15 8q-1 2 -2 6t-7 15.5t-14.5 22t-24 23t-34.5 21.5t-48.5 15.5t-63.5 6.5 q-145 0 -219.5 -109t-67.5 -325l4 -100h295l354 20v-878l176 -10v-70q-46 0 -127 4t-143 4t-137 -4t-123 -4v70l166 10v665q0 70 -32 91.5t-134 21.5h-293v-778l176 -10v-70q-46 0 -127 4t-143 4t-137 -4t-123 -4v70l166 10v778h-191z" />
<glyph unicode="&#xfb02;" horiz-adv-x="1318" d="M55 854v80h191v100q0 135 35 234.5t96.5 155.5t136.5 82t164 26q46 0 89 -9.5t72 -23t51.5 -27t33.5 -22.5l10 -10l166 14v-1378l166 -10v-70q-46 0 -120.5 4t-137.5 4q-61 0 -138 -4t-125 -4v70l168 10v778h-479v-778l166 -10v-70q-46 0 -122.5 4t-139.5 4 q-61 0 -136.5 -4t-123.5 -4v70l168 10v778h-191zM430 1034l2 -100h481v225q0 59 -13.5 111t-40.5 96t-75.5 70t-111.5 26q-83 0 -135.5 -38t-81.5 -134.5t-25 -255.5z" />
<glyph unicode="&#xfb03;" horiz-adv-x="1914" d="M55 854v80h191v80q0 108 25.5 194.5t68 142t101.5 92.5t122.5 52.5t134.5 15.5q179 0 301 -131q124 160 387 160q159 0 249.5 -69t90.5 -166q0 -68 -34.5 -108t-92.5 -40q-47 0 -76.5 26.5t-29.5 71.5q0 22 6.5 40.5t15.5 29.5t18.5 19t16.5 11l6 3q-1 2 -2 6t-7 15.5 t-14.5 22t-24 23t-34.5 21.5t-48.5 15.5t-63.5 6.5q-145 0 -219.5 -109t-67.5 -325l4 -100h295l355 20v-878l176 -10v-70q-46 0 -127.5 4t-143.5 4t-137 -4t-123 -4v70l166 10v665q0 70 -32 91.5t-134 21.5h-293v-778l176 -10v-70q-46 0 -127 4t-143 4t-137 -4t-123 -4v70 l166 10v778h-459v-778l166 -10v-70q-46 0 -122.5 4t-139.5 4q-61 0 -136.5 -4t-123.5 -4v70l168 10v778h-191zM430 1014l2 -80h461v59q0 170 49 287q-74 158 -237 158q-67 0 -116.5 -21t-88 -68.5t-56.5 -131.5t-14 -203z" />
<glyph unicode="&#xfb04;" horiz-adv-x="1966" d="M55 854v80h191v80q0 108 25.5 194.5t68 142t101.5 92.5t122.5 52.5t134.5 15.5q173 0 295 -122q112 143 332 143q46 0 89 -9.5t72 -23t51.5 -27t32.5 -22.5l11 -10l166 14v-1378l166 -10v-70q-46 0 -120.5 4t-137.5 4q-61 0 -137.5 -4t-124.5 -4v70l168 10v778h-480v-778 l166 -10v-70q-46 0 -122.5 4t-139.5 4q-61 0 -136.5 -4t-123.5 -4v70l168 10v778h-459v-778l166 -10v-70q-46 0 -122.5 4t-139.5 4q-61 0 -136.5 -4t-123.5 -4v70l168 10v778h-191zM430 1014l2 -80h461v100q0 148 43 256q-74 148 -231 148q-67 0 -116.5 -21t-88 -68.5 t-56.5 -131.5t-14 -203zM1077 1034l2 -100h482v225q0 59 -13.5 111t-41 96t-76 70t-111.5 26q-83 0 -135.5 -38t-81.5 -134.5t-25 -255.5z" />
<glyph horiz-adv-x="0" />
<glyph horiz-adv-x="682" />
<glyph unicode=" "  horiz-adv-x="493" />
<glyph unicode="&#x09;" horiz-adv-x="493" />
<glyph unicode="&#xa0;" horiz-adv-x="493" />
<glyph unicode="!" horiz-adv-x="671" d="M195 1163q0 79 36.5 136t104.5 57t104.5 -57t36.5 -136q0 -65 -24 -159.5t-51 -235t-31 -309.5h-70q-4 169 -31 309.5t-51 235t-24 159.5zM201 111q0 54 39 92.5t96 38.5q54 0 91.5 -38.5t37.5 -92.5q0 -55 -37.5 -93t-91.5 -38q-57 0 -96 38t-39 93z" />
<glyph unicode="&#x22;" horiz-adv-x="714" d="M72 1350q0 50 30.5 81t77.5 31t78 -31t31 -81q0 -31 -13 -97l-67 -344h-57l-68 344q-12 61 -12 97zM426 1350q0 50 31 81t78 31t77.5 -31t30.5 -81q0 -36 -12 -97l-68 -344h-57l-68 344q-12 61 -12 97z" />
<glyph unicode="#" horiz-adv-x="1153" d="M82 352l20 129h246l37 203h-246l21 129h248l65 373h88l-65 -373h245l66 373h88l-66 -373h242l-20 -129h-244l-37 -203h244l-21 -129h-245l-68 -381h-88l67 381h-245l-68 -381h-88l68 381h-244zM436 481h246l37 203h-246z" />
<glyph unicode="$" horiz-adv-x="1177" d="M92 240q0 69 40 110t99 41q49 0 81 -31.5t32 -78.5q0 -40 -22.5 -65.5t-45.5 -31.5l-22 -6q0 -12 9.5 -28.5t32 -37.5t55 -38t84 -29t112.5 -12h4v549l-10 2q-195 29 -303.5 112.5t-108.5 221.5q0 79 24 145t64 111.5t94.5 77.5t114.5 48.5t125 20.5v219h74v-217 q193 -6 289 -75t96 -171q0 -62 -37 -99.5t-90 -37.5q-46 0 -75.5 27.5t-29.5 70.5q0 25 8.5 44t20.5 29t24 16.5t21 8.5l8 1q0 14 -10 30.5t-33.5 35.5t-73.5 33t-118 17v-499l26 -4q130 -20 222 -63t147 -120t55 -182t-36.5 -185.5t-101 -128.5t-142 -74.5t-170.5 -33.5 v-211h-74v207h-4q-117 0 -207 24.5t-142.5 65.5t-79 89.5t-26.5 101.5zM279 1018q0 -93 62 -153.5t210 -94.5v481q-127 -9 -199.5 -72.5t-72.5 -160.5zM625 37q134 15 204 84t70 180q0 123 -66.5 181.5t-207.5 86.5v-532z" />
<glyph unicode="%" horiz-adv-x="1419" d="M72 991q0 83 29 149.5t75.5 104.5t99 58t105.5 20q56 0 108 -17t98.5 -52.5t74.5 -100t28 -149.5t-28 -151t-74 -104t-99 -57.5t-108 -19.5q-56 0 -107.5 17t-98.5 52t-75 99.5t-28 150.5zM147 6l1072 1362l63 -49l-1071 -1364zM229 997q0 -126 43 -191t109 -65 q68 0 108.5 64.5t40.5 191.5t-40.5 191.5t-108.5 64.5q-66 0 -109 -65t-43 -191zM729 299q0 83 29 149.5t75.5 104.5t99 58t105.5 20q56 0 108.5 -17t99 -53t74.5 -100.5t28 -149.5q0 -68 -19 -124.5t-49.5 -94t-71.5 -63.5t-83.5 -37.5t-86.5 -11.5q-56 0 -107.5 17 t-98.5 52t-75 99.5t-28 150.5zM887 305q0 -126 42.5 -191t108.5 -65q68 0 109 64.5t41 191.5t-41 191.5t-109 64.5q-66 0 -108.5 -65t-42.5 -191z" />
<glyph unicode="&#x26;" horiz-adv-x="1572" d="M41 293q0 78 31.5 148.5t75 118t102.5 88t101.5 61.5t84.5 36q-78 153 -78 277t96 216.5t248 92.5q124 0 205.5 -63.5t81.5 -182.5q0 -62 -33 -120t-73 -94.5t-97 -71.5t-79.5 -45.5t-47.5 -20.5q72 -116 273 -373h2q176 224 227 298t51 108q0 68 -176 68v69 q51 0 138.5 -4t138.5 -4q37 0 116.5 4t133.5 4v-69q-31 0 -56.5 -2.5t-46 -5t-40.5 -11.5t-32.5 -14t-30.5 -21.5t-27.5 -25t-28.5 -33t-28.5 -37t-33.5 -45.5l-252 -344q91 -106 152 -148.5t123 -42.5q140 0 219 224l65 -21q-43 -164 -124.5 -262t-200.5 -98 q-97 0 -178 47.5t-179 159.5q-99 -103 -200.5 -155t-223.5 -52q-53 0 -105 10t-106 35t-95 63t-67 99.5t-26 138.5zM244 350q0 -119 73.5 -205t184.5 -86q82 0 160 43q70 40 147 117v2q-92 112 -209 271q-92 126 -129 192h-2q-118 -58 -172 -143q-53 -84 -53 -191zM541 1081 q0 -141 84 -290h2q17 7 41 19.5t61.5 40t68 58.5t52.5 77.5t22 94.5q0 73 -40.5 127t-120.5 54q-76 0 -123 -51t-47 -130z" />
<glyph unicode="'" horiz-adv-x="360" d="M72 1350q0 50 30.5 81t77.5 31t78 -31t31 -81q0 -31 -13 -97l-67 -344h-57l-68 344q-12 61 -12 97z" />
<glyph unicode="(" horiz-adv-x="741" d="M106 567q0 599 512 955l54 -60q-86 -85 -148 -163.5t-122 -186t-91.5 -241.5t-31.5 -289q0 -133 22.5 -250t56 -201.5t89 -169t103.5 -139.5t118 -125l-50 -64q-115 78 -203.5 166.5t-160.5 202t-110 256.5t-38 309z" />
<glyph unicode=")" horiz-adv-x="741" d="M70 -307q86 85 148 163.5t122 186t91.5 241.5t31.5 289q0 133 -22.5 250t-56 201.5t-89 169t-103.5 139.5t-118 125l49 64q115 -78 203.5 -166.5t160.5 -202t110 -256.5t38 -309q0 -599 -512 -955z" />
<glyph unicode="*" horiz-adv-x="1003" d="M123 1081q0 30 20.5 47t49.5 17q30 0 55 -10l227 -84l-119 219q-18 32 -18 59q0 26 16.5 46t51.5 20q57 0 71 -88l39 -240l117 211q30 59 84 59q25 0 41 -14.5t16 -42.5q0 -40 -41 -78l-186 -164h241q105 0 105 -67q0 -27 -18 -46.5t-54 -19.5q-34 0 -55 8l-223 84 l116 -217q19 -34 19 -63q0 -23 -15.5 -42.5t-48.5 -19.5q-29 0 -49 23.5t-26 64.5l-39 238l-119 -209q-33 -61 -82 -61q-27 0 -43 16t-16 45q0 39 43 76l186 162h-244q-50 0 -76 20t-26 51z" />
<glyph unicode="+" horiz-adv-x="1167" d="M102 477v86h439v438h86v-438h438v-86h-438v-438h-86v438h-439z" />
<glyph unicode="," horiz-adv-x="571" d="M117 -313q190 141 190 284q0 19 -2 29q-64 0 -113 31.5t-49 95.5q0 42 39 78.5t97 36.5q71 0 115 -53t44 -140q0 -219 -278 -411z" />
<glyph unicode="-" horiz-adv-x="745" d="M72 461v119h602v-119h-602z" />
<glyph unicode="." horiz-adv-x="571" d="M154 111q0 54 39 92.5t96 38.5q54 0 91.5 -38.5t37.5 -92.5q0 -55 -37.5 -93t-91.5 -38q-57 0 -96 38t-39 93z" />
<glyph unicode="/" horiz-adv-x="843" d="M61 -408l639 1948l82 -24l-639 -1950z" />
<glyph unicode="0" horiz-adv-x="1220" d="M102 633q0 141 29.5 258t79 196t115.5 133.5t137.5 79.5t146.5 25q77 0 148.5 -23t137.5 -74.5t115 -128t78 -191t29 -255.5q0 -176 -43.5 -313t-116.5 -218.5t-161.5 -123t-186.5 -41.5q-77 0 -148.5 23t-137.5 75t-115 129t-78 192.5t-29 256.5zM330 643 q0 -305 66.5 -460.5t213.5 -155.5q281 0 281 616q0 612 -281 612q-280 0 -280 -612z" />
<glyph unicode="1" horiz-adv-x="882" d="M41 1139l18 67q51 -14 117.5 -17t135.5 6t127 40t83 80l78 -8q-4 -424 -4 -1231l184 -10v-70q-48 0 -132.5 4t-149.5 4t-182 -4t-166 -4v70l247 10l4 1011q-10 -1 -27 -1.5t-65 0.5t-91.5 5t-93.5 16.5t-83 31.5z" />
<glyph unicode="2" horiz-adv-x="1083" d="M106 -4v65q0 82 35.5 159t93 139t126.5 122.5t138 120t126.5 120.5t93 135.5t35.5 154.5q0 129 -65 186t-169 57q-101 0 -162 -54.5t-61 -135.5q4 -1 11 -2.5t24.5 -9t31 -18t24.5 -31t11 -46.5q0 -46 -32 -76t-80 -30q-62 0 -101 42.5t-39 117.5q0 125 106 219t290 94 q67 0 126.5 -11.5t112.5 -37t91.5 -62.5t60.5 -91.5t22 -121.5q0 -78 -34.5 -146.5t-92 -121.5t-128 -102t-146.5 -99t-143.5 -101.5t-124 -120t-82.5 -144.5v-2q11 0 59 1.5t128.5 3t168.5 1.5h65.5t57 1.5t51.5 4t42.5 6.5t37.5 10.5t28.5 16t23.5 22t14 29t8 37.5l4 39 h70v-342q-71 0 -234.5 4t-214.5 4q-36 0 -169.5 -3t-238.5 -3z" />
<glyph unicode="3" horiz-adv-x="1058" d="M92 203q0 68 42.5 109.5t101.5 41.5q48 0 80 -30.5t32 -77.5q0 -42 -25 -68t-50 -32l-25 -5q0 -48 54.5 -81t148.5 -33q64 0 118 20.5t92.5 55.5t65.5 80.5t40 96.5t13 103q0 121 -61 196.5t-176 75.5q-48 0 -89.5 -13.5t-59.5 -27.5l-17 -14l-43 41l405 479l-2 2 q-2 0 -37.5 -1t-95.5 -2t-121 -1q-139 0 -205.5 -27.5t-80.5 -99.5l-9 -39h-69l24 342q67 0 176 -4t207 -4q69 0 182 3t207 3v-69l-426 -506l3 -2q47 18 118 18q157 0 255 -88.5t98 -247.5q0 -86 -28 -159t-76 -124.5t-112.5 -87.5t-137.5 -53.5t-150 -17.5 q-182 0 -274.5 65t-92.5 183z" />
<glyph unicode="4" horiz-adv-x="1103" d="M59 389q108 150 191 299t120.5 240.5t72 181.5t49.5 119q50 94 129 94q44 0 68 -27.5t24 -68.5q0 -47 -25 -92q-41 -76 -194.5 -288t-337.5 -450l2 -2h481v293q89 76 137 160h62v-453h184v-69h-184v-250l151 -10v-70q-48 0 -117 4t-133 4q-62 0 -156.5 -4t-158.5 -4v70 l215 10v250h-549z" />
<glyph unicode="5" horiz-adv-x="1058" d="M92 197q0 68 42.5 109.5t101.5 41.5q48 0 80 -30.5t32 -77.5q0 -42 -25 -68t-50 -32l-25 -5q0 -43 56.5 -79t154.5 -36q72 0 129 22t92 56.5t57.5 82t31.5 94.5t9 98q0 143 -66.5 222t-187.5 79q-60 0 -124.5 -28t-99.5 -56l-34 -27l-71 23v708q8 0 151 -15t236 -15 q49 0 79 2t71 9t70 25t48 46l63 -15q-20 -72 -51 -123.5t-67 -81.5t-86 -47t-97 -22.5t-112 -5.5q-43 0 -101.5 8.5t-95.5 16.5l-37 9v-434l2 -2q142 119 324 119q165 0 268 -101t103 -282q0 -133 -70.5 -234t-182 -151.5t-243.5 -50.5q-76 0 -139.5 12.5t-118.5 40 t-86 77.5t-31 118z" />
<glyph unicode="6" horiz-adv-x="1138" d="M117 520q0 178 33 324.5t99 257.5t172 172t245 61q38 0 77.5 -6.5t82 -23.5t75 -42t53.5 -67t21 -94q0 -53 -38.5 -95t-92.5 -42q-43 0 -76 30t-33 78q0 31 16.5 55.5t32.5 33.5l17 9q-29 93 -135 93q-72 0 -126.5 -25t-93 -73.5t-64.5 -126.5t-40 -175.5t-20 -228.5h2 q52 71 132 104t165 33q179 0 295 -104.5t116 -292.5q0 -130 -64.5 -226.5t-164 -143t-215.5 -46.5q-125 0 -216.5 40t-147 115t-81.5 176t-26 230zM317 375q0 -160 82.5 -253t184.5 -93q63 0 113 30t79.5 78t44.5 103t15 110q0 64 -14.5 121t-43 105t-77 76t-111.5 28 q-28 0 -58 -5.5t-69 -24t-69 -48t-52.5 -84t-24.5 -125.5v-18z" />
<glyph unicode="7" horiz-adv-x="937" d="M84 952l25 342q67 0 187 -4t218 -4q68 0 182 3t207 3v-69q-101 -172 -186 -380t-128.5 -357.5t-79.5 -280t-50 -158.5q-15 -35 -46.5 -56.5t-68.5 -21.5q-42 0 -65 24.5t-23 63.5q0 48 30 131.5t149.5 318t334.5 613.5l-2 2q-1 0 -47.5 -1t-117.5 -2t-132 -1 q-155 0 -224.5 -27t-84.5 -100l-8 -39h-70z" />
<glyph unicode="8" horiz-adv-x="1116" d="M92 285q0 66 24 125t58 98.5t79.5 73.5t78 51.5t65.5 30.5v2q-54 26 -93 53.5t-73.5 66t-52.5 90t-18 115.5q0 83 34.5 148.5t93 105t131.5 60t156 20.5q173 0 281.5 -78.5t108.5 -210.5q0 -55 -17.5 -105t-42.5 -85t-60 -66t-63 -49t-59 -33v-2q67 -32 113.5 -61.5 t92 -73t68.5 -102t23 -131.5q0 -92 -37 -164t-102 -116.5t-150 -67.5t-186 -23q-87 0 -166 19.5t-144.5 58t-104 103t-38.5 147.5zM283 301q0 -123 69.5 -198.5t200.5 -75.5q116 0 198.5 65.5t82.5 181.5q0 58 -21 107.5t-45 79.5t-79.5 64t-84.5 47.5t-101 44.5q-7 3 -11 5 t-10 4.5t-11 4.5q-17 -9 -35 -21t-47.5 -41t-51 -63t-38 -88.5t-16.5 -116.5zM334 1044q0 -36 10 -67.5t23 -55.5t41.5 -49t48 -40t61 -37.5t63 -32.5t70.5 -33q152 108 152 299q0 110 -57.5 168.5t-170.5 58.5q-100 0 -170.5 -59.5t-70.5 -151.5z" />
<glyph unicode="9" horiz-adv-x="1132" d="M117 934q0 93 36.5 169.5t97.5 125.5t139.5 75.5t164.5 26.5q78 0 145 -19t126 -63t100.5 -111.5t65.5 -170t24 -232.5q0 -778 -531 -778q-74 0 -136 14t-112 43t-78 80t-28 119q0 59 39.5 100t97.5 41q44 0 76.5 -29.5t32.5 -72.5q0 -25 -8.5 -45t-21 -31.5t-25 -19.5 t-20.5 -10l-9 -3q0 -37 49.5 -74.5t142.5 -37.5t160 56.5t103 153.5t52.5 206.5t16.5 236.5v18h-2q-93 -135 -303 -135q-180 0 -287.5 91.5t-107.5 275.5zM322 969q0 -66 12 -119.5t39 -98t76 -69.5t116 -25q108 0 180.5 72t59.5 189q-5 44 -13 83.5t-26.5 90t-43.5 86 t-67.5 60t-95.5 24.5q-54 0 -96.5 -20.5t-68.5 -52t-42.5 -72t-23 -77t-6.5 -71.5z" />
<glyph unicode=":" horiz-adv-x="571" d="M154 111q0 54 39 92.5t96 38.5q54 0 91.5 -38.5t37.5 -92.5q0 -55 -37.5 -93t-91.5 -38q-57 0 -96 38t-39 93zM154 786q0 54 39 93t96 39q54 0 91.5 -39t37.5 -93q0 -55 -37.5 -93t-91.5 -38q-57 0 -96 38t-39 93z" />
<glyph unicode=";" horiz-adv-x="628" d="M154 -313q190 141 190 284q0 19 -2 29q-64 0 -113 31.5t-49 95.5q0 42 38.5 78.5t96.5 36.5q71 0 115.5 -53t44.5 -140q0 -219 -278 -411zM184 786q0 54 39 93t96 39q54 0 92 -39t38 -93q0 -55 -38 -93t-92 -38q-57 0 -96 38t-39 93z" />
<glyph unicode="&#x3c;" horiz-adv-x="1169" d="M139 481v94l862 400v-98l-761 -349l761 -348v-98z" />
<glyph unicode="=" horiz-adv-x="1167" d="M102 303v86h963v-86h-963zM102 651v86h963v-86h-963z" />
<glyph unicode="&#x3e;" horiz-adv-x="1169" d="M168 82v98l762 348l-762 349v98l862 -400v-94z" />
<glyph unicode="?" horiz-adv-x="905" d="M72 1122q0 95 91.5 167.5t252.5 72.5q59 0 112.5 -7.5t111 -29.5t99 -56.5t68.5 -93.5t27 -135q0 -72 -29 -133t-71.5 -101.5t-102 -74t-109.5 -52t-106 -32.5l-6 -209h-74l-6 262q55 15 105.5 44t94 70.5t69.5 100t26 125.5q0 127 -59 188.5t-152 61.5 q-59 0 -101.5 -12.5t-62 -31.5t-27.5 -35.5t-8 -30.5q3 0 8.5 -1.5t19.5 -8t24.5 -16t19 -28.5t8.5 -43q0 -43 -28.5 -70.5t-71.5 -27.5q-52 0 -87.5 37.5t-35.5 99.5zM246 111q0 54 39 92.5t96 38.5q54 0 91.5 -38.5t37.5 -92.5q0 -55 -37.5 -93t-91.5 -38q-57 0 -96 38 t-39 93z" />
<glyph unicode="@" horiz-adv-x="2035" d="M168 377q0 124 31.5 246t89.5 231.5t145.5 203.5t195 162.5t242.5 107t283 38.5q165 0 294 -49.5t209.5 -137.5t121.5 -203t41 -251q0 -156 -64 -308.5t-172 -250.5t-225 -98q-82 0 -141.5 39.5t-63.5 119.5h-2q-112 -159 -274 -159q-109 0 -163 77.5t-54 210.5 q0 91 31 187.5t84 177t133 132.5t169 52q142 0 201 -104h2l21 92q44 -12 75 -12q15 0 33.5 3t29.5 6l11 3q-18 -55 -44 -141t-70 -263t-44 -249q0 -103 86 -103q81 0 166 84t142 225.5t57 290.5q0 117 -37 216.5t-109 175t-187 118.5t-261 43q-120 0 -235.5 -38.5t-216 -115 t-177 -183t-120.5 -253t-44 -313.5q0 -171 50 -307.5t139 -226t211 -136.5t268 -47q134 0 253 33.5t213 92t173.5 142t137.5 178.5t102 206l65 -21q-53 -150 -139 -278.5t-203 -229t-272 -158t-330 -57.5q-135 0 -260 31.5t-234 97t-190 159t-127.5 225t-46.5 286.5z M813 348q0 -32 4.5 -61t16.5 -59t37.5 -48t62.5 -18q88 0 163 104.5t126 298.5l34 133q-31 123 -149 123q-81 0 -151 -78t-107 -186t-37 -209z" />
<glyph unicode="A" horiz-adv-x="1406" d="M10 -4v70q116 0 164.5 36t95.5 158l400 1040h123l448 -1224l166 -10v-70q-60 0 -141 4t-119 4q-52 0 -158 -4t-178 -4v70l213 10l-143 403h-437l-84 -219q-25 -64 -25 -101q0 -34 22 -55q23 -22 65.5 -30t116.5 -8v-70h-56q-31 0 -115 4t-126 4q-26 0 -87.5 -4t-101.5 -4 h-43zM473 555h379l-180 508h-4z" />
<glyph unicode="B" horiz-adv-x="1327" d="M92 -4v70l184 4v1151l-184 4v69q45 0 145.5 -2t139.5 -2q35 0 132 2t155 2q454 0 454 -282q0 -123 -57.5 -195.5t-194.5 -109.5v-2q175 -23 267 -102t92 -243q0 -179 -131 -271.5t-357 -92.5q-70 0 -198.5 2t-161.5 2q-39 0 -139.5 -2t-145.5 -2zM485 66h222 q292 0 292 296q0 159 -84.5 229.5t-240.5 70.5h-189v-596zM485 731h189q68 0 115 21.5t71.5 61.5t34.5 85t10 102q0 224 -250 224h-170v-494z" />
<glyph unicode="C" horiz-adv-x="1226" d="M113 631q0 156 38.5 278.5t100 198.5t146 126t169.5 69.5t178 19.5q72 0 131 -14.5t92 -29.5t40 -15q13 0 22.5 7t13.5 14l3 7h73q0 -38 -2 -89.5t-2 -88.5q0 -59 2 -120.5t2 -94.5h-73q-8 35 -20 71.5t-39 91t-60.5 94.5t-87.5 69.5t-117 29.5q-174 0 -277.5 -153 t-103.5 -430q0 -145 26 -257.5t66.5 -179t95 -108.5t104.5 -57t103 -15q55 0 104.5 11.5t85 30t66 40.5t50 44.5t33.5 41t20 29.5l6 12l63 -35q-2 -6 -7 -15.5t-23 -38t-40 -54.5t-60.5 -57.5t-83 -54.5t-108 -38.5t-134.5 -15.5q-131 0 -238 39.5t-188 119.5t-125.5 211.5 t-44.5 305.5z" />
<glyph unicode="D" horiz-adv-x="1468" d="M92 -4v70l184 6v1147l-184 6v69q47 0 143.5 -2t133.5 -2q35 0 150 1t167 1q149 0 270 -36.5t211.5 -110t139.5 -192.5t49 -277q0 -201 -67 -352.5t-206.5 -239.5t-337.5 -88q-82 0 -214.5 2t-161.5 2q-34 0 -132 -2t-145 -2zM485 66h222q76 0 138 20t105.5 53t76 81.5 t52 101t31.5 117t16 122t4 123.5q0 541 -452 541h-193v-1159z" />
<glyph unicode="E" horiz-adv-x="1234" d="M92 -4v70l184 8v1143l-184 8v69q30 0 170 -4t262 -4q101 0 276 4t238 4l21 -348h-74l-16 88q-15 84 -79 133.5t-167 49.5h-238v-512l213 8q33 1 57.5 13.5t36 30t18 34t6.5 28.5l1 12h74v-376h-74q0 7 -1 19t-8.5 42.5t-21 54t-43 43.5t-69.5 21h-189v-561h240 q121 0 204 70.5t103 195.5l6 39h74l-12 -383q-81 0 -240.5 4t-271.5 4q-151 0 -310.5 -4t-185.5 -4z" />
<glyph unicode="F" horiz-adv-x="1150" d="M92 -4v70l184 8v1143l-184 8v69q30 0 170 -4t262 -4q101 0 276 4t238 4l21 -348h-74l-16 88q-15 84 -79 133.5t-167 49.5h-238v-512l213 8q33 1 57.5 13.5t36 30t18 34t6.5 28.5l1 12h74v-376h-74q0 7 -1 19t-8.5 42.5t-21 54t-43 43.5t-69.5 21h-189v-561l226 -8v-70 q-36 0 -155.5 4t-186.5 4q-41 0 -138.5 -4t-138.5 -4z" />
<glyph unicode="G" horiz-adv-x="1390" d="M113 631q0 152 43 274t111.5 199t160 128t182 72t183.5 21q72 0 136 -15.5t101.5 -30.5t44.5 -15q13 0 22.5 7t12.5 14l4 7h74q0 -32 -2 -95t-2 -95q0 -48 2 -110.5t2 -92.5h-74q-6 26 -15.5 54.5t-28 72t-47.5 81t-66.5 72t-92.5 54.5t-119 20q-77 0 -148.5 -38.5 t-129 -110t-91.5 -183.5t-34 -249q0 -633 432 -633q110 0 225 53v242q0 60 -6 91t-29.5 51t-59.5 25t-105 5v69q46 0 158 -4t141 -4q32 0 106.5 4t104.5 4v-69l-115 -8v-488l-61 -22l-70 55q-162 -88 -344 -88q-288 0 -447 182t-159 494z" />
<glyph unicode="H" horiz-adv-x="1536" d="M92 -4v70l180 8v1143l-180 8v69q46 0 151 -4t134 -4t134 4t151 4v-69l-181 -8v-510h574v510l-181 8v69q46 0 152 -4t135 -4t133 4t150 4v-69l-180 -8v-1143l180 -8v-70q-46 0 -150 4t-133 4t-135 -4t-152 -4v70l181 8v557h-574v-557l181 -8v-70q-46 0 -151 4t-134 4 t-134 -4t-151 -4z" />
<glyph unicode="I" horiz-adv-x="753" d="M92 -4v70l180 8v1143l-180 8v69q46 0 151 -4t134 -4t134 4t151 4v-69l-181 -8v-1143l181 -8v-70q-46 0 -151 4t-134 4t-134 -4t-151 -4z" />
<glyph unicode="J" horiz-adv-x="1118" d="M41 207q0 87 43.5 132.5t116.5 45.5q46 0 77 -33t31 -80q0 -29 -8 -52t-19 -36t-22 -22t-19 -12l-8 -3q0 -47 37.5 -88t120.5 -41q130 0 193 84q59 80 59 228v14l-8 416v457l-225 8v69q36 0 159.5 -4t190.5 -4q41 0 138 4t138 4v-69l-184 -8v-844q0 -210 -115 -317 t-336 -107q-165 0 -262.5 65.5t-97.5 192.5z" />
<glyph unicode="K" horiz-adv-x="1423" d="M92 -4v70l180 8v1143l-180 8v69q46 0 151 -4t134 -4t134 4t151 4v-69l-181 -8v-635q16 15 77 74t100 98t69 71q22 23 61.5 64.5t57 60.5t46 50.5t41 48.5t27 39t20 38t5.5 31q0 19 -7.5 32.5t-18 20.5t-29 11t-33.5 5t-39 1v67q41 0 132 -4t116 -4q26 0 117 4t131 4v-67 q-57 0 -146.5 -42.5t-146.5 -109.5q-94 -111 -270 -291q103 -110 227 -286q67 -96 130 -202t92 -164l30 -58l164 -8v-70q-46 0 -157 4t-140 4t-131 -4t-148 -4v70l164 8q-51 125 -178 315q-100 148 -195 254q-126 -122 -168 -162v-407l181 -8v-70q-46 0 -151 4t-134 4 t-134 -4t-151 -4z" />
<glyph unicode="L" horiz-adv-x="1171" d="M92 -4v70l184 8v1143l-180 8v69q46 0 151 -4t134 -4t134 4t151 4v-69l-181 -8v-1143h240q120 0 202.5 70.5t102.5 195.5l6 39h74l-12 -383q-81 0 -239.5 4t-270.5 4q-151 0 -310.5 -4t-185.5 -4z" />
<glyph unicode="M" horiz-adv-x="1810" d="M72 -4v70q46 0 70.5 1.5t51.5 7.5t39 18t23 34t14.5 54t3.5 79v957l-172 8v69l428 -8l377 -993h2l387 993l422 8v-69l-182 -8v-1143l182 -8v-70q-41 0 -145.5 4t-145.5 4t-141 -4t-141 -4v70l182 8v1073h-2l-444 -1147h-86l-437 1147h-2v-887q0 -47 3.5 -79t14.5 -54 t23.5 -34t39.5 -18t51.5 -7.5t70.5 -1.5v-70q-53 0 -129 4t-115 4t-114.5 -4t-128.5 -4z" />
<glyph unicode="N" horiz-adv-x="1431" d="M61 -4v70q45 0 69.5 1.5t51.5 7.5t39.5 18t24 34t15 54t3.5 79v770q0 54 -11.5 91.5t-28.5 57.5t-46.5 30.5t-53.5 13t-63 2.5v69l345 -8l698 -985h2v729q0 47 -3.5 79t-15 54t-24 34t-39 18.5t-51.5 8t-70 1.5v69q53 0 129 -4t115 -4t115 4t129 4v-69q-45 0 -70 -1.5 t-51.5 -8t-39 -18.5t-24 -34t-15 -54t-3.5 -79v-1005l-131 -27l-709 1003h-2v-741q0 -47 3.5 -79t14.5 -54t23.5 -34t39.5 -18t51.5 -7.5t70.5 -1.5v-70q-53 0 -129 4t-115 4t-115 -4t-129 -4z" />
<glyph unicode="O" d="M113 633q0 146 39.5 265.5t103 197t147.5 131t169 76t171 22.5q88 0 173 -20.5t169.5 -71t147.5 -125t102 -192t39 -263.5q0 -147 -38.5 -267t-101.5 -198t-146.5 -131.5t-170 -76.5t-174.5 -23t-173 21t-169 71.5t-147 125.5t-102 193t-39 265zM352 643 q0 -158 29.5 -277.5t83 -191.5t123 -107.5t155.5 -35.5q176 0 284 157t108 455t-108 453t-284 155q-175 0 -283 -155t-108 -453z" />
<glyph unicode="P" horiz-adv-x="1249" d="M92 -4v70l184 8v1147l-184 4v69q47 0 141 -2t134 -2q38 0 142.5 2t160.5 2q487 0 487 -342q0 -185 -128.5 -286t-340.5 -101h-203v-491l226 -8v-70q-38 0 -156.5 4t-179.5 4q-45 0 -142 -4t-141 -4zM485 635h168q64 0 113.5 17.5t80.5 46.5t50.5 70t27 84.5t7.5 94.5 q0 131 -66.5 204t-220.5 73h-160v-590z" />
<glyph unicode="Q" d="M113 633q0 146 39.5 265.5t103 197t147.5 131t169 76t171 22.5q88 0 173 -20.5t169.5 -71t147.5 -125t102 -192t39 -263.5q0 -168 -51 -300.5t-128.5 -211.5t-180.5 -127q17 -40 30.5 -67t33.5 -60.5t41.5 -55t48.5 -41t61 -29t74 -9.5q92 0 168.5 50t127.5 116l54 -33 q-172 -307 -383 -307q-55 0 -102 13t-81 31t-65.5 52t-51 62t-41.5 75t-33.5 76.5t-29.5 81.5q-62 -12 -123 -12q-88 0 -173 21t-169 71.5t-147 125.5t-102 193t-39 265zM348 643q0 -232 64 -383h2q106 109 243 109q62 0 112 -19.5t86.5 -57t62 -78t51.5 -97.5h2 q168 158 168 526q0 298 -108.5 453t-287.5 155q-178 0 -286.5 -155t-108.5 -453zM442 201q105 -170 301 -170q51 0 97 12q-19 55 -37.5 93.5t-45 73.5t-62.5 53t-81 18q-96 0 -172 -80z" />
<glyph unicode="R" horiz-adv-x="1353" d="M92 -4v70l184 8v1147l-184 4v69q46 0 142 -2t133 -2q36 0 127 2t149 2q117 0 204 -15t156.5 -50t105.5 -98t36 -154q0 -132 -89 -205.5t-263 -114.5v-2q27 -5 48 -10t59 -19t67.5 -32t63.5 -50t56 -71.5t37 -99t15 -129.5q0 -117 28 -152t115 -35l72 2v-69 q-70 -4 -154 -4q-85 0 -141.5 20t-87.5 62t-43.5 96.5t-12.5 132.5q0 162 -76.5 245t-267.5 83h-86v-551l205 -8v-70q-35 0 -139 4t-176 4q-43 0 -141.5 -4t-141.5 -4zM485 694h115q332 0 332 275q0 126 -67.5 191t-225.5 65h-154v-531z" />
<glyph unicode="S" horiz-adv-x="1198" d="M172 -18q0 49 3 127t3 127q0 48 -3 115t-3 108h74q2 -29 12.5 -68t29.5 -88.5t50.5 -96t71 -86t97 -63.5t122.5 -24q118 0 184 61.5t66 161.5q0 65 -23 114.5t-62 80.5t-89.5 55t-106.5 43t-112 39t-106.5 48t-89.5 66t-62 97.5t-23 136.5q0 83 25.5 151t66 111t93 72.5 t104 42t102.5 12.5q72 0 131.5 -15.5t92.5 -30.5t40 -15q13 0 22.5 12t13.5 24l3 13h68q0 -34 -2 -90.5t-2 -89.5q0 -52 2 -113t2 -90h-68q-3 34 -15 73.5t-37.5 85t-60 82t-88.5 60.5t-118 24q-92 0 -157 -56t-65 -150q0 -60 24 -105t64 -74t92 -52t110 -42t115.5 -40.5 t109.5 -52.5t92 -72.5t64 -105.5t24 -147q0 -102 -35.5 -181.5t-96.5 -126.5t-136.5 -71t-161.5 -24q-69 0 -134.5 12.5t-104 27.5t-69 27.5t-39.5 12.5q-16 0 -25 -13.5t-10 -26.5l-1 -13h-68z" />
<glyph unicode="T" horiz-adv-x="1286" d="M82 885l22 409q95 0 265.5 -4t275.5 -4t273.5 4t263.5 4l22 -409h-69l-17 67q-9 41 -25.5 80t-46.5 84t-80.5 73t-113.5 28h-102v-1143l223 -8v-70q-53 0 -163 4t-165 4t-167 -4t-165 -4v70l224 8v1143h-103q-63 0 -113.5 -28t-80.5 -73t-46.5 -84t-25.5 -80l-16 -67h-70 z" />
<glyph unicode="U" horiz-adv-x="1372" d="M41 1223v69q46 0 153 -4t136 -4t124.5 4t141.5 4v-69l-162 -9v-655q0 -246 74 -360.5t237 -114.5q30 0 59 5t62 18.5t61.5 35t55.5 57.5t46 82.5t30.5 114t11.5 148.5v483q0 47 -3.5 79t-14 54t-22.5 34t-38.5 18.5t-51 8t-69.5 1.5v69q54 0 128 -4t112 -4t112 4t128 4 v-69q-45 0 -69.5 -1.5t-51 -8t-38.5 -18.5t-22.5 -34t-14 -54t-3.5 -79v-487q0 -153 -34.5 -264.5t-98 -177t-145.5 -96t-185 -30.5q-77 0 -142.5 14t-127.5 49t-104.5 90.5t-68.5 143t-26 201.5v743z" />
<glyph unicode="V" horiz-adv-x="1366" d="M10 1225v69q53 0 136 -4t135 -4q45 0 150 4t175 4v-69l-205 -17l328 -960h4l283 782q23 64 23 101q1 35 -21 56q-22 22 -64.5 30t-115.5 8v69q49 0 148 -4t149 -4q37 0 108 4t123 4v-69q-115 0 -164 -37t-98 -164l-373 -1024h-119l-436 1212z" />
<glyph unicode="W" horiz-adv-x="1968" d="M10 1225v69q53 0 144 -4t143 -4q45 0 128 4t153 4v-69l-177 -11l299 -958h5l239 684l-70 201q-16 46 -48 65t-107 19v69q40 0 116 -4t136 -4q54 0 146 4t167 4v-69q-22 0 -41 -1.5t-40 -6.5t-37 -13t-29.5 -21.5t-20 -31.5t-5.5 -43.5t11 -56.5l260 -795h4l250 774 q26 76 26 119q0 25 -9 39q-25 36 -162 37v69q49 0 124.5 -4t125.5 -4q37 0 106 4t121 4v-69q-115 0 -161 -35.5t-85 -159.5l-333 -1030h-125l-277 813h-2l-285 -813h-125l-395 1214z" />
<glyph unicode="X" horiz-adv-x="1284" d="M20 1225v69q54 0 134 -4t127 -4q43 0 132.5 4t155.5 4v-69l-155 -11l262 -428h4l147 242q58 94 58 146q0 28 -31 39.5t-109 11.5v69q46 0 115.5 -4t114.5 -4q36 0 106 4t123 4v-69q-71 0 -121.5 -22.5t-85 -61t-79.5 -111.5l-195 -319l389 -635l162 -10v-70q-54 0 -136 4 t-137 4q-47 0 -143.5 -4t-165.5 -4v70l185 10v4l-285 463h-2l-170 -283q-27 -45 -37 -62t-19.5 -40t-9.5 -39q0 -30 36 -41.5t136 -11.5v-70q-47 0 -131 4t-141 4q-36 0 -106 -4t-121 -4v70q105 0 173.5 45t131.5 149l215 356l-367 598z" />
<glyph unicode="Y" horiz-adv-x="1308" d="M10 1225v69q58 0 141 -4t134 -4q46 0 143.5 4t169.5 4v-69l-184 -11l311 -561h8q16 34 42 81t75 133t92 163q48 79 48 123q0 17 -7 29q-25 43 -170 43v69q51 0 132 -4t132 -4q37 0 107.5 4t124.5 4v-69q-106 0 -165 -43t-120 -154q-27 -49 -67 -121t-56.5 -101t-42.5 -77 t-34 -66t-22.5 -51.5t-17.5 -48.5t-9 -41.5t-6.5 -47.5t-0.5 -50v-350l180 -8v-70q-46 0 -150.5 4t-133.5 4t-134 -4t-151 -4v70l180 8v446l-389 694z" />
<glyph unicode="Z" horiz-adv-x="1187" d="M102 -4v74l713 1142q-129 -2 -272 -2q-128 0 -200.5 -49.5t-92.5 -132.5l-21 -88h-69l22 348q67 0 203 -4t217 -4q76 0 214 4t235 4v-74l-707 -1142q160 2 252 2q63 0 126.5 15.5t122 46t99 83.5t47.5 121l4 39h70v-383q-65 0 -222 4t-251 4q-89 0 -242 -4t-248 -4z" />
<glyph unicode="[" horiz-adv-x="952" d="M297 -279v1739h543v-65l-346 -4v-1600l346 -4v-66h-543z" />
<glyph unicode="\" horiz-adv-x="843" d="M61 1516l82 24l639 -1948l-82 -26z" />
<glyph unicode="]" horiz-adv-x="952" d="M113 -213l346 4v1600l-346 4v65h542v-1739h-542v66z" />
<glyph unicode="^" horiz-adv-x="1177" d="M195 461l346 756h92l350 -756h-98l-297 653h-2l-293 -653h-98z" />
<glyph unicode="_" horiz-adv-x="1167" d="M-31 -236h1229v-86h-1229v86z" />
<glyph unicode="`" horiz-adv-x="1024" d="M281 1442q0 35 23 57.5t56 22.5q61 0 115 -78l213 -318l-37 -34l-303 241q-67 56 -67 109z" />
<glyph unicode="a" horiz-adv-x="1060" d="M82 240q0 55 19 99.5t49 74.5t77.5 51.5t95.5 33.5t112 19t117.5 8.5t121.5 1.5v58v54v50q-1 48 -10.5 86.5t-27.5 66.5t-50.5 43t-79.5 15q-44 0 -81.5 -9.5t-60 -24t-35 -26t-18.5 -20.5q5 -3 11.5 -8.5t18 -27t11.5 -46.5q0 -40 -27 -67t-71 -27t-75.5 30t-31.5 83 q0 93 109 153t276 60q68 0 121 -12t87 -33t58.5 -50t35.5 -62.5t18 -69.5q6 -32 6 -64v-10q0 -18 -0.5 -36t0.5 -36l-10 -412v-10q0 -47 17 -74q19 -30 55 -30q28 0 49 24.5t28 49.5l7 24l67 -16q-1 -7 -4 -19.5t-19 -44t-37 -55.5t-62 -44t-91 -20q-143 0 -182 146h-4 q-90 -158 -277 -158q-58 0 -110 14.5t-99.5 45t-75.5 87.5t-28 134zM279 266q0 -94 43 -148.5t127 -54.5q83 0 148.5 67t68.5 177l4 152h-20q-106 0 -176 -10q-78 -11 -120.5 -37t-58.5 -60t-16 -86z" />
<glyph unicode="b" horiz-adv-x="1130" d="M0 1364v70l348 20v-688h2q51 88 141 145.5t209 57.5q164 0 256.5 -129.5t92.5 -339.5q0 -119 -32 -214t-80 -151.5t-111 -93.5t-118.5 -50.5t-107.5 -13.5q-79 0 -145 23.5t-94.5 46.5t-47.5 47l-82 -100l-63 16v1241q0 33 -8.5 55t-19.5 33.5t-37 17t-44.5 6.5t-58.5 1z M354 154q73 -99 226 -99q268 0 268 412q0 397 -223 397q-101 0 -186 -95.5t-85 -227.5v-387z" />
<glyph unicode="c" horiz-adv-x="925" d="M82 471q0 106 30 193.5t78.5 143.5t111.5 94t125.5 54.5t123.5 16.5q79 0 140 -18t94.5 -44t54.5 -60.5t27.5 -62.5t6.5 -55q0 -62 -35.5 -99.5t-86.5 -37.5q-43 0 -72 28t-29 70q0 24 8 43t20 28.5t24 16t20 8.5l8 1q0 14 -8 31t-24.5 35.5t-50 31t-77.5 12.5 q-70 0 -122 -26t-81.5 -66t-47.5 -99.5t-23.5 -115.5t-5.5 -125q0 -41 1 -68.5t6 -76t14.5 -82t29 -73t46 -64t68.5 -41.5t95 -17q52 0 101.5 20t83 48.5t59.5 57.5t39 49l12 20l59 -37q-5 -10 -15 -26t-44.5 -57.5t-74 -73t-104.5 -57.5t-135 -26q-213 0 -331.5 130.5 t-118.5 375.5z" />
<glyph unicode="d" horiz-adv-x="1148" d="M82 440q0 119 32 213.5t80 150.5t110.5 93t118 50.5t107.5 13.5q151 0 246 -78h4v368q0 33 -8.5 55t-19.5 33.5t-37 17t-44.5 6.5t-58.5 1v70l351 20v-1376l165 -4v-70l-337 -20l-7 198h-2q-53 -94 -143.5 -152.5t-208.5 -58.5q-164 0 -256 129.5t-92 339.5zM283 473 q0 -65 5 -118.5t20 -107t39 -90t64.5 -59t94.5 -22.5q98 0 184 97.5t86 229.5v377q-82 103 -227 103q-40 0 -75 -10t-71 -38.5t-62 -72.5t-42 -118.5t-16 -170.5z" />
<glyph unicode="e" horiz-adv-x="976" d="M82 471q0 105 30 192t76.5 142.5t106 94t117 55t110.5 16.5q93 0 164 -27t109 -66t61.5 -92t30 -95t6.5 -85q0 -24 -2 -49.5t-4 -38.5l-2 -14h-594v-42.5t0.5 -54.5t3.5 -57t8 -62.5t14.5 -59t22 -58t32.5 -48t45 -41t59 -24.5t75 -10q52 0 101.5 20t83 48.5t59.5 57.5 t39 49l12 20l59 -37q-5 -10 -15 -26t-44.5 -57.5t-74 -73t-104.5 -57.5t-135 -26q-213 0 -331.5 130.5t-118.5 375.5zM295 573h389q8 41 8 86q0 242 -178 242q-195 0 -219 -328z" />
<glyph unicode="f" horiz-adv-x="710" d="M55 854v80h191v164q0 105 32.5 186.5t87 129.5t118 72.5t132.5 24.5q120 0 197.5 -51t77.5 -137q0 -51 -31 -83t-80 -32q-37 0 -66.5 30.5t-29.5 72.5q0 22 9 40.5t19 26.5l9 8q-1 2 -2.5 6t-9 13.5t-17.5 17t-29 13.5t-42 6q-198 0 -198 -300q0 -18 1 -38l6 -170h254 v-80h-250v-778l228 -10v-70q-46 0 -150 4t-172 4q-62 0 -137 -4t-123 -4v70l166 10v778h-191z" />
<glyph unicode="g" horiz-adv-x="1040" d="M61 -246q0 86 57.5 144.5t114.5 58.5q21 0 35.5 -11.5t14.5 -31.5q0 -16 -17.5 -58t-17.5 -87q0 -87 74.5 -148t218.5 -61q160 0 242.5 72t82.5 171q0 164 -217 164h-147q-187 0 -262.5 49t-75.5 150q0 53 36.5 101t92.5 65v2q-73 36 -117.5 108t-44.5 176 q0 73 22.5 133.5t59 100.5t85 68t98.5 40.5t100 12.5q126 0 219 -55v12q0 100 55 178t150 78q61 0 96 -34t35 -85q0 -48 -31.5 -78.5t-77.5 -30.5q-32 0 -58.5 16.5t-37.5 33.5l-10 16q-32 -8 -49 -30t-17 -68q0 -43 25 -78q65 -82 65 -209q0 -90 -33 -160t-86.5 -110.5 t-116 -61t-128.5 -20.5q-32 0 -75.5 6t-47.5 6q-39 0 -59.5 -26.5t-20.5 -51.5q0 -26 9 -43.5t22 -27t39.5 -14.5t50 -6t65.5 -1h180q69 0 127.5 -13t110.5 -41.5t81.5 -83t29.5 -130.5q0 -87 -33.5 -156t-85.5 -109.5t-121 -67.5t-133 -36.5t-129 -9.5q-84 0 -160 15 t-141.5 46t-104.5 85.5t-39 125.5zM317 629q0 -271 179 -271q88 0 134 63t46 208q0 146 -46 210t-134 64q-179 0 -179 -274z" />
<glyph unicode="h" horiz-adv-x="1222" d="M41 -4v70l168 10v1175q0 33 -8.5 55t-19.5 33.5t-37 17t-44.5 6.5t-58.5 1v70l348 20v-688h2q58 91 147.5 146t202.5 55q131 0 207 -88.5t76 -270.5v-532l168 -10v-70q-48 0 -123 4t-137 4t-137 -4t-123 -4v70l166 10v473q0 174 -34 247.5t-130 73.5q-102 0 -190.5 -98 t-88.5 -244v-452l166 -10v-70q-46 0 -121.5 4t-138.5 4q-61 0 -136.5 -4t-123.5 -4z" />
<glyph unicode="i" horiz-adv-x="602" d="M61 -4v70l166 10v676q0 28 -3 47.5t-13.5 32t-19 19t-33.5 9.5t-41 3.5t-56 0.5v70l355 20v-878l166 -10v-70q-46 0 -122 4t-138 4t-137.5 -4t-123.5 -4zM203 1319q0 51 35 86t86 35t85.5 -35t34.5 -86t-34.5 -86t-85.5 -35t-86 35t-35 86z" />
<glyph unicode="j" horiz-adv-x="563" d="M-205 -319q0 42 33.5 75t83.5 33q37 0 63.5 -25.5t26.5 -66.5q0 -23 -9 -43.5t-19 -29.5l-9 -9q26 -33 72 -33q168 0 168 290v17l-4 267v596q0 21 -2.5 37.5t-9.5 28t-12.5 19.5t-20 13t-23 8t-29 4.5t-32 1.5h-37.5v70l354 20v-958q0 -109 -21 -194t-55.5 -138.5 t-83.5 -88t-100.5 -48.5t-110.5 -14q-54 0 -95.5 12t-64.5 30.5t-38 42t-20 43.5t-5 40zM178 1319q0 51 35 86t86 35t86 -35t35 -86t-35 -86t-86 -35t-86 35t-35 86z" />
<glyph unicode="k" horiz-adv-x="1101" d="M31 -4v70l168 10v1175q0 33 -8.5 55t-19.5 33.5t-37 17t-44.5 6.5t-58.5 1v70l352 20v-954q41 19 105 64.5t102 80.5q10 9 36.5 31.5t41 36t33 32.5t27.5 34.5t9 27.5q0 29 -31 47t-90 18v68h476v-68q-135 -5 -322 -170q-122 -106 -227 -184l2 -2q83 0 146 -19.5 t99.5 -52t64 -73.5t41.5 -83.5t30 -83.5t31.5 -73.5t44 -52t69.5 -19.5l78 4v-67q-58 -12 -203 -12q-61 0 -104 25.5t-66.5 66t-41 89.5t-34 98t-38 89.5t-60.5 66t-94 25.5q-67 0 -123 -16v-352l166 -10v-70q-46 0 -121.5 4t-138.5 4q-61 0 -136.5 -4t-123.5 -4z" />
<glyph unicode="l" horiz-adv-x="624" d="M51 -4v70l168 10v1173q0 33 -8.5 55t-19.5 33.5t-37 17t-44.5 6.5t-58.5 1v72l355 20v-1378l165 -10v-70q-46 0 -121.5 4t-138.5 4q-61 0 -136.5 -4t-123.5 -4z" />
<glyph unicode="m" horiz-adv-x="1798" d="M63 -4v70l166 10v680q0 18 -2 32.5t-4 25.5t-9.5 18.5t-12 13t-18.5 9t-21 5.5t-28 3t-32 1h-39v70l338 20l7 -190h4q49 90 135 146.5t198 56.5q51 0 92.5 -16.5t66.5 -40t44 -54.5t26.5 -53.5t12.5 -44.5h4q48 92 136 150.5t204 58.5q279 0 279 -361v-530l166 -10v-70 q-46 0 -122 4t-138 4q-58 0 -129 -4t-115 -4v70l149 10v452q0 43 -0.5 69t-3.5 66.5t-9 65.5t-17.5 54.5t-27.5 46.5t-40.5 28.5t-56.5 11.5q-38 0 -80 -20t-79.5 -57t-62 -99t-24.5 -137v-481l151 -10v-70q-44 0 -115.5 4t-129.5 4q-59 0 -131 -4t-117 -4v70l153 10v452 v47.5t-1.5 48.5t-4 52t-7.5 48.5t-12.5 47t-19.5 38.5t-26.5 32.5t-35.5 19.5t-46 8q-98 0 -179 -96.5t-81 -247.5v-450l166 -10v-70q-46 0 -122 4t-138 4t-137.5 -4t-123.5 -4z" />
<glyph unicode="n" horiz-adv-x="1243" d="M61 -4v70l166 10v680q0 18 -2 32.5t-4 25.5t-9.5 18.5t-12 13t-18.5 9t-21 5.5t-28 3t-32 1h-39v70l338 20l7 -194h2q60 94 149.5 150.5t204.5 56.5q131 0 206.5 -88.5t75.5 -270.5v-532l168 -10v-70q-48 0 -123 4t-137 4t-137 -4t-123 -4v70l166 10v473q0 174 -34 247.5 t-130 73.5q-47 0 -96 -25t-89.5 -68t-66.5 -109.5t-26 -141.5v-450l166 -10v-70q-46 0 -122 4t-138 4t-137.5 -4t-123.5 -4z" />
<glyph unicode="o" horiz-adv-x="1099" d="M82 459q0 126 39.5 226t106 160.5t148.5 92t173 31.5q93 0 175 -28.5t149 -85.5t106 -153.5t39 -222.5q0 -127 -38.5 -226.5t-105 -160.5t-149 -92t-176.5 -31q-93 0 -174.5 28t-148.5 85t-105.5 153.5t-38.5 223.5zM299 469q0 -430 250 -430q252 0 252 430t-252 430 q-250 0 -250 -430z" />
<glyph unicode="p" horiz-adv-x="1150" d="M20 864v70l338 20l7 -196h2q53 93 143.5 151t208.5 58q165 0 257.5 -129t92.5 -338q0 -100 -22 -182.5t-60 -137.5t-84 -95.5t-98.5 -62.5t-98 -32t-88.5 -10q-152 0 -245 77h-2v-448l209 -10v-70q-46 0 -132.5 4t-148.5 4q-61 0 -136.5 -4t-123.5 -4v70l149 10v1147 q0 18 -2 32t-4 25.5t-9.5 19t-12 13t-18.5 9t-21.5 5.5t-28.5 3t-32.5 1h-39.5zM375 147q77 -94 223 -94q270 0 270 414q0 399 -225 399q-97 0 -182.5 -96.5t-85.5 -228.5v-394z" />
<glyph unicode="q" horiz-adv-x="1122" d="M74 440q0 119 32 213.5t80 150.5t110.5 93t118 50.5t107.5 13.5q59 0 110 -12t85 -32t54.5 -36.5t35.5 -34.5l84 106l63 -16v-1327l148 -10v-70q-46 0 -122 4t-138 4q-61 0 -147 -4t-134 -4v70l211 10v565h-2q-56 -91 -143.5 -147t-204.5 -56q-164 0 -256 129.5 t-92 339.5zM274 473q0 -82 9.5 -147t32.5 -124.5t69 -92.5t113 -33q97 0 183.5 96.5t86.5 230.5v375q-78 105 -227 105q-40 0 -75.5 -10t-71.5 -38.5t-61.5 -72.5t-42 -118.5t-16.5 -170.5z" />
<glyph unicode="r" horiz-adv-x="892" d="M61 -4v70l166 10v680q0 24 -3 40.5t-7 28.5t-16.5 19.5t-20.5 11.5t-31.5 5.5t-37.5 2t-50 0.5v70l338 20l7 -241h2q48 117 129.5 184.5t191.5 67.5q59 0 101 -39.5t42 -112.5q0 -54 -32 -90.5t-78 -36.5q-42 0 -68 27t-26 65q0 23 8.5 44t17.5 30l8 10q-5 15 -40 15 q-42 0 -85.5 -37t-79 -101.5t-58.5 -162t-23 -207.5v-293l227 -10v-70q-46 0 -149.5 4t-171.5 4q-62 0 -137.5 -4t-123.5 -4z" />
<glyph unicode="s" horiz-adv-x="897" d="M102 -10q0 40 3.5 96t3.5 96t-3.5 70.5t-3.5 64.5h78q7 -32 18.5 -64t36 -71.5t55.5 -69t80.5 -49.5t108.5 -20q80 0 131.5 42t51.5 110q0 55 -30 95t-77.5 64t-105.5 44t-115.5 41.5t-105 49.5t-77.5 75t-30 110t20 114t52.5 84t76 55t87 31t87.5 9q48 0 87.5 -10.5 t63 -20.5t32.5 -10q13 0 22.5 7.5t12.5 14.5l4 8h67q0 -34 -2 -76.5t-2 -72.5q0 -36 2 -61t2 -54h-71q-6 38 -21.5 72.5t-42 65t-69.5 49t-97 18.5q-75 0 -118.5 -39.5t-43.5 -95.5q0 -42 23 -74t60.5 -50.5t85.5 -37t98.5 -33.5t98.5 -40t85.5 -55.5t60.5 -82t23 -117.5 q0 -64 -19.5 -116t-52 -87t-77 -59t-93 -34.5t-100.5 -10.5q-68 0 -124.5 15.5t-88.5 31t-41 15.5q-12 0 -20.5 -9.5t-11.5 -18.5l-3 -9h-72z" />
<glyph unicode="t" horiz-adv-x="706" d="M20 854v80h179v342q50 0 96.5 10t68.5 20l21 9v-381h264v-80h-264v-555q0 -51 0.5 -74t3 -58t9 -50t17.5 -32.5t29 -23.5t43 -6t48 13t38.5 32t28 37.5t18.5 31.5l5 13l65 -24q-2 -8 -6.5 -20.5t-23 -44.5t-42.5 -57t-68 -45t-97 -20q-37 0 -68 4t-55 13t-43 18t-32.5 26 t-23 30.5t-15.5 36.5t-9.5 39t-5 44.5t-2 45.5t-0.5 48v578h-179z" />
<glyph unicode="u" horiz-adv-x="1193" d="M20 864v70l357 20v-563v-63.5t1.5 -56t4.5 -52t8.5 -42.5t13.5 -38.5t20 -28.5t28 -23t37.5 -12t48.5 -5q47 0 96 24.5t90 68t67.5 110.5t26.5 143v336q0 21 -2.5 37.5t-9.5 28t-12.5 19.5t-20 13t-23 8t-29 4.5t-32 1.5h-37.5v70l355 20v-876l166 -4v-70l-338 -20 l-7 196h-4q-56 -93 -147 -150t-207 -57q-84 0 -140.5 21t-87 66t-43 102.5t-12.5 142.5v447q0 24 -3.5 41.5t-7.5 30t-16.5 20t-21 12t-32 6t-38 2t-49.5 0.5z" />
<glyph unicode="v" horiz-adv-x="1058" d="M-31 872v70q58 0 126 -4t118 -4q46 0 119 4t145 4v-70l-158 -10l261 -672h2l192 488q11 27 17 43t12.5 36t8 31t1.5 24.5t-5 20.5t-13.5 15t-21.5 11.5t-31.5 7t-42 4.5t-54.5 1v70q51 0 118 -4t118 -4q37 0 96 4t113 4v-70q-45 0 -76.5 -7t-53.5 -18t-41 -38t-32 -53.5 t-33 -77.5l-279 -692h-108l-344 876z" />
<glyph unicode="w" horiz-adv-x="1544" d="M-31 872v70q56 0 124 -4t116 -4q45 0 115.5 4t134.5 4v-70l-144 -10l230 -653h2l182 522l-27 72q-14 40 -35.5 54.5t-70.5 14.5v70q20 0 73 -4t107 -4q39 0 112 3.5t107 4.5v-70q-54 0 -78.5 -11.5t-24.5 -33t11 -53.5l199 -565h2l160 469q28 75 28 117q0 24 -8 38 q-24 39 -156 39v70q49 0 115.5 -4t116.5 -4q36 0 95 4t110 4v-70q-55 0 -88.5 -8t-59 -33.5t-40.5 -58t-36 -94.5l-233 -692h-115l-223 626h-4l-217 -626h-113l-313 876z" />
<glyph unicode="x" horiz-adv-x="1032" d="M-16 872v70q54 0 123 -4t116 -4q43 0 112.5 4t135.5 4v-70l-125 -10l199 -282l69 98q4 6 15 20.5t15.5 21t13 19t12.5 19t9.5 16.5t8 17t4.5 15t2 15q0 51 -112 51v70q46 0 105 -4t104 -4q36 0 95.5 4t112.5 4v-70q-53 0 -93.5 -11.5t-76 -39t-61.5 -58t-66 -85.5 l-114 -160l311 -442l154 -10v-70q-55 0 -128 4t-128 4q-47 0 -121.5 -4t-143.5 -4v70l158 10l-225 319l-96 -135q-4 -6 -14 -20t-14 -19.5t-12.5 -17.5t-12 -17.5t-9 -14.5t-8 -15t-5.5 -13t-4 -13t-1 -11q0 -27 35 -40t120 -13v-70q-47 0 -120.5 4t-130.5 4q-37 0 -96 -4 t-111 -4v70q69 0 121.5 23.5t88 61t87.5 109.5l139 197l-285 405z" />
<glyph unicode="y" horiz-adv-x="1052" d="M-31 872v70q56 0 123.5 -4t118.5 -4q46 0 120 4t146 4v-70l-153 -10l274 -643h2l180 459q14 37 21.5 59t12.5 45.5t0.5 36t-14.5 24.5t-31.5 17.5t-51.5 8.5t-74 3v70q51 0 114.5 -4t114.5 -4q37 0 97 4t114 4v-70q-28 0 -50 -2t-41 -9t-31.5 -12.5t-26 -20.5t-21 -25 t-19 -35t-18 -40t-20.5 -50l-240 -602q-19 -49 -44.5 -117t-40.5 -109t-37 -93.5t-39.5 -84t-43 -65t-51.5 -51.5t-61 -29.5t-76 -11.5q-104 0 -151 47.5t-47 111.5q0 47 29.5 81t78.5 34q43 0 69.5 -25.5t26.5 -66.5q0 -19 -6 -35.5t-12 -23.5l-6 -7q1 -3 4 -7.5t17 -11.5 t34 -7q53 0 97.5 51.5t84.5 157.5l62 159l-389 889z" />
<glyph unicode="z" horiz-adv-x="925" d="M63 -6v69l564 805v4q-1 0 -75 -1t-126 -1q-59 0 -94.5 -4t-69 -18.5t-52.5 -44t-28 -78.5l-16 -88h-70l21 307q67 0 161 -4t175 -4q77 0 181 4t202 4v-70l-553 -806v-2q6 0 76 1t116 1q51 0 90 5t76.5 19.5t63 39.5t43.5 66.5t24 98.5l4 39h70v-342q-65 0 -173 4t-202 4 q-89 0 -201 -4t-207 -4z" />
<glyph unicode="{" horiz-adv-x="952" d="M236 559v66q86 7 137 40t68 83t18 112.5t-6 130.5t-10 135t12.5 127t53.5 106.5t121.5 73.5t209.5 27v-65q-82 0 -132 -20t-68.5 -55t-21 -82t4.5 -102.5t15 -113.5t4.5 -119t-22.5 -115.5t-71 -105t-135 -86.5v-8q83 -36 135 -86.5t71 -105.5t22.5 -115.5t-4.5 -119 t-15 -114.5t-4.5 -102.5t21 -82t68.5 -55.5t132 -20v-66q-124 0 -206.5 28.5t-121.5 67t-54.5 107.5t-14.5 120.5t8 134.5q11 69 8.5 135t-17 117.5t-66.5 86t-140 41.5z" />
<glyph unicode="|" horiz-adv-x="638" d="M276 -424v1952h86v-1952h-86z" />
<glyph unicode="}" horiz-adv-x="952" d="M113 -213q82 0 132 20t68.5 55.5t21 82t-4.5 102.5t-15 114.5t-4.5 119t22.5 115.5t71 105.5t135 86.5v8q-83 36 -135 86.5t-71 105t-22.5 115.5t4.5 119t15 113.5t4.5 102.5t-21 82t-68.5 55t-132 20v65q126 0 209.5 -27t121.5 -73.5t53.5 -106.5t12.5 -127t-10 -135 t-6 -130.5t18 -112.5t68 -83t137 -40v-66q-88 -7 -140 -41.5t-66.5 -86t-17 -117.5t8.5 -135q5 -63 7 -96t-1 -90t-16 -88.5t-40.5 -72t-70.5 -61t-111 -35.5t-157 -15v66z" />
<glyph unicode="~" horiz-adv-x="1167" d="M68 428q4 9 11 23.5t33.5 52t57.5 66t81.5 52t106.5 23.5t118.5 -23.5t109.5 -51t107 -51t112 -23.5q39 0 77 17t63.5 41.5t45.5 49t29 41.5l10 17l70 -48q-4 -9 -12 -23.5t-36 -51.5t-60.5 -65.5t-86 -51.5t-112.5 -23q-60 0 -122.5 23t-107.5 51t-102 51t-107 23 q-38 0 -74.5 -17t-61.5 -41.5t-44 -49t-28 -41.5l-9 -17z" />
<glyph unicode="&#xa1;" horiz-adv-x="671" d="M215 135q0 54 15.5 126.5t34.5 140.5t36.5 186.5t20.5 251.5h69q3 -133 20.5 -251.5t36.5 -186.5t34.5 -140.5t15.5 -126.5q0 -78 -37 -135t-105 -57t-104.5 56.5t-36.5 135.5zM227 1188q0 55 37.5 93t91.5 38q57 0 96.5 -38t39.5 -93q0 -54 -39.5 -92.5t-96.5 -38.5 q-54 0 -91.5 38.5t-37.5 92.5z" />
<glyph unicode="&#xa2;" horiz-adv-x="1026" d="M117 565q0 118 34.5 212t92.5 151.5t123.5 90.5t138.5 44v305h69v-301q81 -1 143.5 -19t97 -43.5t56.5 -60t28.5 -62.5t6.5 -55q0 -62 -35.5 -99.5t-87.5 -37.5q-43 0 -71.5 27.5t-28.5 70.5q0 24 8 43t20 28.5t24 16t20 8.5l8 1q0 14 -8.5 31t-26.5 35.5t-54 31 t-83 12.5h-17v-854h3q52 0 101.5 20t83 48.5t59.5 57.5t38 49l12 20l60 -37q-5 -9 -14 -24.5t-42.5 -56t-71.5 -71.5t-100 -58t-129 -30v-295h-69v297q-189 15 -289 144t-100 360zM311 563q0 -359 195 -413v833q-59 -18 -100 -60.5t-60.5 -104t-27 -121.5t-7.5 -134z" />
<glyph unicode="&#xa3;" horiz-adv-x="1257" d="M43 143q0 87 56 139t149 52q55 0 176 -33q-3 162 -33 287h-278v74h262q-43 153 -43 249q0 179 132.5 296.5t319.5 117.5q166 0 262.5 -69.5t96.5 -172.5q0 -81 -41.5 -125.5t-100.5 -44.5q-49 0 -81.5 31t-32.5 78q0 26 9.5 46.5t22.5 31t26 17t23 7.5l9 2 q0 54 -52.5 91.5t-154.5 37.5q-91 0 -156 -74t-65 -220q0 -66 16 -169.5t19 -129.5h334v-74h-328q2 -20 2 -68q0 -143 -35 -260q86 -28 133 -42t119 -28t127 -14q97 0 146.5 38.5t58.5 137.5h69q0 -51 -6 -99t-24 -102t-47 -93t-79 -65t-116 -26q-47 0 -96 11t-112 39.5 t-92.5 43.5t-103.5 56q-6 3 -9 5t-8 4.5l-9 4.5q-90 -166 -250 -166q-88 0 -151.5 49.5t-63.5 128.5zM137 141q0 -45 37 -75.5t86 -30.5q50 0 92.5 36t61.5 109q-108 53 -172 53q-105 0 -105 -92z" />
<glyph unicode="&#xa4;" horiz-adv-x="1167" d="M106 100l218 230q-68 84 -68 202q0 116 74 203l-217 226l84 75l213 -235q77 47 178 47t180 -45l211 233l84 -75l-215 -224q72 -88 72 -205q0 -116 -72 -204l221 -228l-84 -75l-215 239q-77 -47 -182 -47q-106 0 -182 45l-216 -239zM389 532q0 -114 58 -176.5t141 -62.5 q84 0 141 60.5t57 178.5q0 113 -57.5 176.5t-140.5 63.5q-84 0 -141.5 -61t-57.5 -179z" />
<glyph unicode="&#xa5;" horiz-adv-x="1150" d="M-37 1225v69q47 0 130 -4t124 -4q36 0 119 4t145 4v-69l-143 -11l285 -516h6q17 34 41 76.5t70.5 121t80.5 136.5q24 42 36 65.5t20.5 48.5t3 37.5t-22 23.5t-47 14.5t-78.5 3.5v69q41 0 112.5 -4t112.5 -4q37 0 107.5 4t124.5 4v-69q-105 0 -163.5 -43.5t-123.5 -155.5 q-145 -249 -172 -305h303v-78h-338q-30 -73 -30 -176v-57h368v-78h-368v-258l188 -8v-70q-46 0 -151 4t-134 4t-133.5 -4t-150.5 -4v70l188 8v258h-356v78h356v157l-43 76h-313v78h270l-276 493z" />
<glyph unicode="&#xa6;" horiz-adv-x="638" d="M276 307h86v-731h-86v731zM276 797v731h86v-731h-86z" />
<glyph unicode="&#xa7;" horiz-adv-x="1093" d="M113 614q0 116 64 194t161 114q-121 111 -121 227q0 156 109 240t270 84q154 0 232.5 -70t78.5 -166q0 -63 -32 -102t-84 -39q-39 0 -66 25.5t-27 58.5q0 38 23.5 64t58.5 32v8q0 48 -52 85.5t-140 37.5q-104 0 -160.5 -51.5t-56.5 -138.5q0 -54 33.5 -106t87 -97 t118.5 -90.5t130 -96.5t118.5 -105.5t87 -125.5t33.5 -150q0 -97 -48.5 -168.5t-125.5 -113.5q94 -101 94 -199q0 -159 -116 -254.5t-296 -95.5q-165 0 -260.5 76t-95.5 186q0 83 41 128.5t104 45.5q39 0 68 -29t29 -71q0 -24 -9 -43.5t-21.5 -29.5t-25 -17t-21.5 -9l-9 -2 v-10q0 -66 57.5 -109.5t161.5 -43.5q106 0 169.5 59t63.5 162q0 43 -21.5 85t-57.5 77t-83 70t-99 68.5t-104 68t-99 72t-83 77.5t-57.5 88.5t-21.5 99.5zM252 696q0 -51 32.5 -102t91 -99.5t118.5 -90.5t136 -95.5t124 -95.5q90 56 90 176q0 60 -27 114.5t-79.5 104.5 t-102 87.5t-124.5 90.5t-116 86q-62 -18 -102.5 -65t-40.5 -111z" />
<glyph unicode="&#xa8;" horiz-adv-x="1003" d="M170 1315q0 49 35 84t84 35t84 -35t35 -84t-35 -84t-84 -35t-84 35t-35 84zM596 1315q0 49 35 84t84 35t84 -35t35 -84t-35 -84t-84 -35t-84 35t-35 84z" />
<glyph unicode="&#xa9;" horiz-adv-x="1425" d="M72 557q0 146 54 270t144 204.5t206 125.5t241 45t238.5 -40.5t203 -115.5t142.5 -194t53 -264q0 -146 -54 -270t-143.5 -204.5t-203.5 -125.5t-236 -45q-128 0 -243 40.5t-205 115.5t-143.5 193.5t-53.5 264.5zM213 571q0 -127 38.5 -233t106 -177t160 -110t199.5 -39 q225 0 371.5 153.5t146.5 407.5q0 127 -39.5 233t-109 177t-164.5 110.5t-205 39.5q-219 0 -361.5 -154t-142.5 -408zM379 582q0 77 23.5 140t60.5 102t84.5 66t92 37.5t87.5 10.5q60 0 118 -18l58 -19q10 0 18 5.5t11 10.5l2 5h53q0 -25 -2 -59.5t-2 -57.5q0 -38 2 -78.5 t2 -62.5h-51q-19 213 -201 213q-184 0 -184 -299q0 -20 2 -42t8 -58t20 -66.5t34.5 -59.5t55.5 -46t79 -17q43 0 82.5 13t65.5 31.5t46 36.5t30 31l9 13l43 -31q-4 -7 -12 -18.5t-35 -40.5t-58 -51.5t-81.5 -41t-104.5 -18.5q-168 0 -262 95t-94 274z" />
<glyph unicode="&#xaa;" horiz-adv-x="817" d="M106 850q0 36 11 63.5t28 46.5t46 32.5t58 21t71.5 12t78 5.5t86.5 1l2 94q2 58 -17 84.5t-81 26.5q-35 0 -60.5 -10t-35.5 -25q24 -20 24 -53q0 -29 -24.5 -51.5t-61.5 -22.5q-42 0 -65 24t-23 60q0 65 74.5 105.5t204.5 40.5q77 0 123.5 -21t64 -57.5t22.5 -87.5 t-1 -111l-6 -207q-3 -51 39 -51q20 0 36 11t22 23l5 11l64 -27q-1 -5 -4 -12.5t-16 -26.5t-30 -34t-48.5 -27t-69.5 -12q-59 0 -90.5 20t-43.5 62q-70 -84 -194 -84q-38 0 -69.5 8.5t-59.5 27.5t-44 55t-16 85zM260 864q0 -48 27 -71t69 -23q41 0 80 23t47 81v89 q-88 0 -137.5 -11.5t-67.5 -32t-18 -55.5z" />
<glyph unicode="&#xab;" horiz-adv-x="1122" d="M123 471q0 59 63 107q83 64 172.5 145t137.5 131l49 49l49 -41q-149 -217 -311 -389v-4q72 -76 150 -173.5t119 -156.5l42 -59l-49 -41q-19 21 -53 55t-128.5 120.5t-177.5 150.5q-34 26 -48.5 49.5t-14.5 56.5zM549 471q0 59 63 107q83 64 172.5 145t137.5 131l49 49 l49 -41q-149 -217 -311 -389v-4q72 -76 149.5 -173.5t119.5 -156.5l42 -59l-49 -41q-19 21 -53 55t-128.5 120.5t-177.5 150.5q-34 26 -48.5 49.5t-14.5 56.5z" />
<glyph unicode="&#xac;" horiz-adv-x="1198" d="M106 659v86h971v-546h-86v460h-885z" />
<glyph unicode="&#xad;" horiz-adv-x="745" d="M72 461v119h602v-119h-602z" />
<glyph unicode="&#xae;" horiz-adv-x="854" d="M51 954q0 111 55 198.5t140.5 132t181.5 44.5q99 0 183 -40.5t138 -124t54 -195.5q0 -166 -112.5 -270.5t-262.5 -104.5q-99 0 -183.5 40.5t-139 124t-54.5 195.5zM147 961q0 -140 78.5 -224t202.5 -84t203.5 85t79.5 225t-79.5 223.5t-203.5 83.5q-123 0 -202 -84.5 t-79 -224.5zM264 805v35l47 4v258h-43v41q8 0 34.5 -1t45.5 -1q9 0 42.5 1t62.5 1q125 0 125 -80q0 -56 -82 -82v-6q27 -7 38 -11.5t23.5 -13.5t16.5 -22.5t4 -36.5q0 -33 7 -42t33 -9v-37h-34q-37 0 -60 6t-32 19.5t-11 24.5t-2 32q0 27 -2 39t-12.5 20t-32.5 8h-39v-108 l47 -4v-35q-16 0 -46 1t-40 1t-42 -1t-48 -1zM393 997h37q59 0 59 58q0 47 -55 47h-41v-105z" />
<glyph unicode="&#xaf;" horiz-adv-x="1107" d="M231 1257v119h646v-119h-646z" />
<glyph unicode="&#xb0;" horiz-adv-x="819" d="M57 1124q0 101 51.5 178t130.5 114.5t169 37.5q70 0 132 -19.5t111 -57.5t78 -100t29 -140q0 -102 -50 -179t-128.5 -114t-171.5 -37q-94 0 -171.5 33t-128.5 106.5t-51 177.5zM223 1130q0 -126 47.5 -192t137.5 -66q184 0 184 258q0 259 -184 259q-89 0 -137 -66.5 t-48 -192.5z" />
<glyph unicode="&#xb1;" horiz-adv-x="1167" d="M102 88v86h963v-86h-963zM102 743v86h439v439h86v-439h438v-86h-438v-438h-86v438h-439z" />
<glyph unicode="&#xb2;" horiz-adv-x="653" d="M51 874v70q184 138 277.5 230t93.5 155q0 56 -34.5 82.5t-78.5 26.5q-42 0 -71 -15t-37 -34q6 -2 15 -6.5t23.5 -24.5t14.5 -47q0 -39 -24 -61.5t-58 -22.5q-48 0 -73 28.5t-25 73.5q0 77 76.5 127.5t166.5 50.5q104 0 171 -44.5t67 -123.5q0 -72 -61 -136.5t-265 -209.5 v-2q7 0 55 2t105 2q52 0 78.5 13t30.5 28l4 19h69v-183q-39 0 -122.5 2.5t-133.5 2.5q-47 0 -127 -1.5t-137 -1.5z" />
<glyph unicode="&#xb3;" horiz-adv-x="630" d="M55 997q0 41 27 71t65 30q34 0 58 -20.5t24 -57.5q0 -17 -7.5 -31.5t-15.5 -20.5l-7 -5q0 -6 7 -14t25.5 -15.5t44.5 -7.5q68 0 111 36.5t43 96.5q0 48 -30 71t-72 23q-22 0 -39.5 -5.5t-24.5 -11.5l-6 -6l-51 56l170 186v2h-18q-18 -1 -44.5 -1.5t-48.5 -0.5 q-53 0 -82 -16.5t-39 -57.5l-4 -22h-69l12 203q40 0 101 -2t116 -2q41 0 115 1t127 1v-70l-205 -190l2 -3q18 7 47 7q40 0 79 -12.5t71 -49t32 -90.5q0 -99 -89.5 -156t-215.5 -57q-99 0 -154 38t-55 103z" />
<glyph unicode="&#xb4;" horiz-adv-x="1024" d="M287 1126l213 318q54 78 114 78q33 0 56.5 -22.5t23.5 -57.5q0 -53 -67 -109l-303 -241z" />
<glyph unicode="&#xb6;" horiz-adv-x="1214" d="M98 950q0 84 34.5 151t91.5 108t128 63t148 22q80 0 198.5 -2t167.5 -2q20 0 123 2t154 2v-69l-176 -4v-1147l176 -8v-70q-36 0 -154.5 4t-202.5 4q-74 0 -229.5 -4t-191.5 -4v70l245 8v508h-22q-107 0 -193.5 19.5t-154.5 62t-105 115t-37 171.5zM698 74h181v1149h-181 v-1149z" />
<glyph unicode="&#xb7;" horiz-adv-x="571" d="M154 530q0 54 39 93t96 39q54 0 91.5 -39t37.5 -93q0 -55 -37.5 -93t-91.5 -38q-57 0 -96 38t-39 93z" />
<glyph unicode="&#xb8;" horiz-adv-x="1024" d="M311 -424l35 47q62 -47 131 -52.5t115.5 31t46.5 101.5q0 62 -44 87t-122 13l35 213h72l-21 -135q43 4 83 -1.5t78.5 -24t61.5 -59t23 -99.5q0 -73 -53 -128.5t-127.5 -76.5t-162.5 -1t-151 85z" />
<glyph unicode="&#xb9;" horiz-adv-x="530" d="M31 1380l18 74q172 -31 248 51l72 -20q-2 -159 -2 -537l112 -6v-70q-38 0 -97 2.5t-87 2.5t-103.5 -2.5t-107.5 -2.5v70l139 6l2 408q-108 -7 -194 24z" />
<glyph unicode="&#xba;" horiz-adv-x="720" d="M51 991q0 107 45.5 184t114 112.5t149.5 35.5q63 0 117 -18.5t98 -55.5t69.5 -100t25.5 -145q0 -160 -89.5 -246t-220.5 -86q-62 0 -116 18t-98 55t-69.5 100t-25.5 146zM209 997q0 -256 151 -256q150 0 150 256t-150 256q-151 0 -151 -256z" />
<glyph unicode="&#xbb;" horiz-adv-x="1122" d="M102 80q150 217 312 389v4q-72 76 -150 173.5t-120 156.5l-42 59l50 41q19 -20 53 -54.5t128 -120.5t177 -150q63 -48 63 -107q0 -33 -14.5 -56.5t-48.5 -49.5q-83 -64 -172.5 -145.5t-137.5 -131.5l-48 -49zM528 80q150 217 312 389v4q-72 76 -150 173.5t-120 156.5 l-42 59l50 41q19 -20 53 -54.5t128 -120.5t177 -150q63 -48 63 -107q0 -33 -14.5 -56.5t-48.5 -49.5q-83 -64 -172.5 -145.5t-137.5 -131.5l-48 -49z" />
<glyph unicode="&#xbc;" horiz-adv-x="1282" d="M74 1196l18 74q172 -31 248 51l72 -21q-2 -158 -2 -536l112 -6v-70q-38 0 -97 2t-87 2t-103.5 -2t-107.5 -2v70l139 6l2 407q-108 -6 -194 25zM123 6l1071 1362l63 -49l-1071 -1364zM643 219q73 72 122 138t86 131.5t46 78.5q40 62 90 62q27 0 44.5 -19t17.5 -45 q0 -34 -25 -65q-59 -66 -279 -269v-2h232v93q31 18 53.5 40t30.5 37h67v-170h119v-69h-119v-88l119 -6v-70q-28 0 -85.5 2t-98.5 2q-35 0 -103 -2t-108 -2v70l125 6v88h-307z" />
<glyph unicode="&#xbd;" horiz-adv-x="1308" d="M74 1196l18 74q172 -31 248 51l72 -21q-2 -158 -2 -536l112 -6v-70q-38 0 -97 2t-87 2t-103.5 -2t-107.5 -2v70l139 6l2 407q-108 -6 -194 25zM102 6l1072 1362l63 -49l-1071 -1364zM694 -2v70q184 138 277.5 230t93.5 155q0 56 -34.5 82t-78.5 26q-42 0 -71 -15t-37 -34 q6 -2 15 -6.5t23.5 -24.5t14.5 -47q0 -39 -24 -61.5t-58 -22.5q-47 0 -72.5 29t-25.5 74q0 77 77 127.5t167 50.5q104 0 170.5 -44.5t66.5 -123.5q0 -72 -61 -136.5t-265 -209.5v-2q7 0 55 2t105 2q52 0 78.5 13t30.5 28l4 18h69v-182q-39 0 -122.5 2t-133.5 2 q-47 0 -127 -1t-137 -1z" />
<glyph unicode="&#xbe;" horiz-adv-x="1269" d="M68 813q0 41 27 70.5t65 29.5q34 0 58 -20.5t24 -56.5q0 -17 -8 -31.5t-16 -20.5l-7 -6q0 -6 7 -14t26 -15.5t45 -7.5q68 0 110.5 36.5t42.5 96.5q0 48 -30 71.5t-72 23.5q-22 0 -39.5 -5.5t-24.5 -11.5l-6 -6l-51 55l170 187v2h-18q-18 -1 -44 -1.5t-48 -0.5 q-53 0 -82 -16.5t-39 -57.5l-4 -22h-70l12 202q40 0 101 -2t116 -2q41 0 115 1t127 1v-69l-205 -191l2 -2q15 6 47 6q29 0 58.5 -7.5t58.5 -23.5t47.5 -47.5t18.5 -72.5q0 -99 -90 -156t-216 -57q-99 0 -153.5 38t-54.5 103zM117 6l1071 1362l63 -49l-1071 -1364zM631 219 q73 72 122 138t86 131.5t46 78.5q40 62 90 62q27 0 44 -19t17 -45q0 -35 -24 -65q-59 -66 -279 -269v-2h232v93q31 18 53.5 40t30.5 37h67v-170h119v-69h-119v-88l119 -6v-70q-28 0 -85.5 2t-98.5 2q-35 0 -103 -2t-108 -2v70l125 6v88h-308z" />
<glyph unicode="&#xbf;" horiz-adv-x="905" d="M92 258q0 72 29 133t71.5 101.5t102 74t109.5 52t106 32.5l6 209h74l6 -262q-55 -15 -105.5 -44t-94 -70.5t-69.5 -100t-26 -125.5q0 -127 59 -188.5t152 -61.5q59 0 101.5 12.5t62 32t27.5 36t8 30.5q-3 0 -8.5 1.5t-19.5 8t-24.5 15.5t-19 28t-8.5 43q0 43 28.5 70.5 t71.5 27.5q52 0 87.5 -37.5t35.5 -99.5q0 -95 -91.5 -167t-252.5 -72q-59 0 -112.5 7.5t-111 29t-99 56t-68.5 93.5t-27 135zM416 1188q0 55 37.5 93t91.5 38q57 0 96 -38t39 -93q0 -54 -39 -92.5t-96 -38.5q-54 0 -91.5 38.5t-37.5 92.5z" />
<glyph unicode="&#xc0;" horiz-adv-x="1406" d="M0 -4v70q116 0 164.5 36t95.5 158l399 1040h123l449 -1224l166 -10v-70q-60 0 -141 4t-119 4q-52 0 -158 -4t-178 -4v70l213 10l-144 403h-436l-84 -219q-23 -60 -25 -97t21 -59t65.5 -30t116.5 -8v-70h-55q-31 0 -115.5 4t-126.5 4q-26 0 -87 -4t-101 -4h-43zM449 1649 q0 34 23 58t60 24q50 0 95 -41l258 -244l-29 -43l-330 141q-77 35 -77 105zM463 555h379l-180 508h-5z" />
<glyph unicode="&#xc1;" horiz-adv-x="1406" d="M0 -4v70q116 0 164.5 36t95.5 158l399 1040h123l449 -1224l166 -10v-70q-60 0 -141 4t-119 4q-52 0 -158 -4t-178 -4v70l213 10l-144 403h-436l-84 -219q-23 -60 -25 -97t21 -59t65.5 -30t116.5 -8v-70h-55q-31 0 -115.5 4t-126.5 4q-26 0 -87 -4t-101 -4h-43zM463 555 h379l-180 508h-5zM557 1446l258 244q45 41 94 41q37 0 60.5 -24.5t23.5 -57.5q0 -70 -78 -105l-329 -141z" />
<glyph unicode="&#xc2;" horiz-adv-x="1406" d="M0 -4v70q116 0 164.5 36t95.5 158l399 1040h123l449 -1224l166 -10v-70q-60 0 -141 4t-119 4q-52 0 -158 -4t-178 -4v70l213 10l-144 403h-436l-84 -219q-23 -60 -25 -97t21 -59t65.5 -30t116.5 -8v-70h-55q-31 0 -115.5 4t-126.5 4q-26 0 -87 -4t-101 -4h-43zM389 1495 q98 70 211 203q29 35 54.5 51t62.5 16t62.5 -16t54.5 -51q50 -59 102.5 -110t79.5 -72l28 -21l-26 -45q-149 54 -299 152h-4q-67 -44 -141.5 -82t-115.5 -54l-42 -16zM463 555h379l-180 508h-5z" />
<glyph unicode="&#xc3;" horiz-adv-x="1406" d="M0 -4v70q116 0 164.5 36t95.5 158l399 1040h123l449 -1224l166 -10v-70q-60 0 -141 4t-119 4q-52 0 -158 -4t-178 -4v70l213 10l-144 403h-436l-84 -219q-23 -60 -25 -97t21 -59t65.5 -30t116.5 -8v-70h-55q-31 0 -115.5 4t-126.5 4q-26 0 -87 -4t-101 -4h-43zM395 1466 q34 124 83 174t120 50q54 0 164.5 -45.5t159.5 -45.5q38 0 63.5 23.5t44.5 75.5l62 -23q-34 -123 -83 -173t-120 -50q-54 0 -164.5 45t-159.5 45q-38 0 -63.5 -23t-44.5 -75zM463 555h379l-180 508h-5z" />
<glyph unicode="&#xc4;" horiz-adv-x="1406" d="M0 -4v70q116 0 164.5 36t95.5 158l399 1040h123l449 -1224l166 -10v-70q-60 0 -141 4t-119 4q-52 0 -158 -4t-178 -4v70l213 10l-144 403h-436l-84 -219q-23 -60 -25 -97t21 -59t65.5 -30t116.5 -8v-70h-55q-31 0 -115.5 4t-126.5 4q-26 0 -87 -4t-101 -4h-43zM385 1565 q0 49 34.5 83.5t84.5 34.5t84.5 -34.5t34.5 -83.5t-34.5 -84t-84.5 -35t-84.5 35t-34.5 84zM463 555h379l-180 508h-5zM811 1565q0 49 34.5 83.5t84.5 34.5t84.5 -34.5t34.5 -83.5t-34.5 -84t-84.5 -35t-84.5 35t-34.5 84z" />
<glyph unicode="&#xc5;" horiz-adv-x="1406" d="M0 -4v70q116 0 164.5 36t95.5 158l395 1030q-86 17 -135 74t-49 139q0 93 70.5 155t173.5 62q107 0 175 -61t68 -156q0 -77 -47.5 -133.5t-126.5 -75.5l447 -1218l166 -10v-70q-60 0 -141 4t-119 4q-52 0 -158 -4t-178 -4v70l213 10l-144 403h-436l-84 -219 q-23 -60 -25 -97t21 -59t65.5 -30t116.5 -8v-70h-55q-31 0 -115.5 4t-126.5 4q-26 0 -87 -4t-101 -4h-43zM463 555h379l-180 508h-5zM598 1503q0 -70 31 -112.5t86 -42.5t85.5 42t30.5 113q0 69 -31 112.5t-85 43.5t-85.5 -42t-31.5 -114z" />
<glyph unicode="&#xc6;" horiz-adv-x="1820" d="M0 -4v70q92 0 152 40t106 140l455 973l-172 6v69q29 0 242 -4t337 -4q101 0 276 4t238 4l21 -352h-74l-16 88q-16 85 -79.5 136t-166.5 51h-242v-553l217 8q33 1 57.5 17t36 38.5t18 44.5t6.5 38l1 15h72v-376h-72q0 6 -1 15.5t-8.5 34t-21 43.5t-43 35t-69.5 17h-193 v-520h244q123 0 205 68t102 194l6 39h74l-12 -379q-81 0 -240.5 4t-271.5 4q-148 0 -307.5 -4t-188.5 -4v70l180 8v495h-356l-147 -319q-26 -56 -28 -92.5t21.5 -56.5t63.5 -27.5t106 -7.5v-70h-55q-31 0 -115.5 4t-126.5 4q-26 0 -87 -4t-101 -4h-43zM549 645h319v502 q0 24 -3.5 40t-10 21.5t-10.5 7t-10 1.5q-22 0 -60 -84z" />
<glyph unicode="&#xc7;" horiz-adv-x="1226" d="M113 631q0 156 38.5 278.5t100 198.5t146 126t169.5 69.5t178 19.5q72 0 131 -14.5t92 -29.5t40 -15q13 0 22.5 7t13.5 14l3 7h73q0 -38 -2 -89.5t-2 -88.5q0 -59 2 -120.5t2 -94.5h-73q-8 35 -20 71.5t-39 91t-60.5 94.5t-87.5 69.5t-117 29.5q-174 0 -277.5 -153 t-103.5 -430q0 -145 26 -257.5t66.5 -179t95 -108.5t104.5 -57t103 -15q55 0 104.5 11.5t85 30t66 40.5t50 44.5t33.5 41t20 29.5l6 12l63 -35q-2 -6 -7 -15.5t-23 -38t-40 -54.5t-60.5 -57.5t-83 -54.5t-108 -38.5t-134.5 -15.5l-11 -74q43 4 83 -1.5t78.5 -24t61.5 -59 t23 -99.5q0 -58 -34 -107t-89.5 -75t-119.5 -33t-131.5 17.5t-118.5 76.5l34 47q62 -47 131 -52.5t115.5 31t46.5 101.5q0 62 -44 87t-122 13l25 154q-117 10 -211 55t-165 125.5t-109.5 206t-38.5 287.5z" />
<glyph unicode="&#xc8;" horiz-adv-x="1234" d="M92 -4v70l184 8v1143l-184 8v69q30 0 170 -4t262 -4q101 0 276 4t238 4l21 -348h-74l-16 88q-15 84 -79 133.5t-167 49.5h-238v-512l213 8q33 1 57.5 13.5t36 30t18 34t6.5 28.5l1 12h74v-376h-74q0 7 -1 19t-8.5 42.5t-21 54t-43 43.5t-69.5 21h-189v-561h240 q121 0 204 70.5t103 195.5l6 39h74l-12 -383q-81 0 -240.5 4t-271.5 4q-151 0 -310.5 -4t-185.5 -4zM356 1649q0 33 23.5 57.5t60.5 24.5q50 0 95 -41l258 -244l-29 -43l-330 141q-78 35 -78 105z" />
<glyph unicode="&#xc9;" horiz-adv-x="1234" d="M92 -4v70l184 8v1143l-184 8v69q30 0 170 -4t262 -4q101 0 276 4t238 4l21 -348h-74l-16 88q-15 84 -79 133.5t-167 49.5h-238v-512l213 8q33 1 57.5 13.5t36 30t18 34t6.5 28.5l1 12h74v-376h-74q0 7 -1 19t-8.5 42.5t-21 54t-43 43.5t-69.5 21h-189v-561h240 q121 0 204 70.5t103 195.5l6 39h74l-12 -383q-81 0 -240.5 4t-271.5 4q-151 0 -310.5 -4t-185.5 -4zM465 1446l258 244q45 41 94 41q37 0 60.5 -24.5t23.5 -57.5q0 -70 -78 -105l-329 -141z" />
<glyph unicode="&#xca;" horiz-adv-x="1234" d="M92 -4v70l184 8v1143l-184 8v69q30 0 170 -4t262 -4q101 0 276 4t238 4l21 -348h-74l-16 88q-15 84 -79 133.5t-167 49.5h-238v-512l213 8q33 1 57.5 13.5t36 30t18 34t6.5 28.5l1 12h74v-376h-74q0 7 -1 19t-8.5 42.5t-21 54t-43 43.5t-69.5 21h-189v-561h240 q121 0 204 70.5t103 195.5l6 39h74l-12 -383q-81 0 -240.5 4t-271.5 4q-151 0 -310.5 -4t-185.5 -4zM297 1495q98 70 211 203q29 35 54.5 51t62.5 16t62 -16t54 -51q50 -59 103 -110t80 -72l28 -21l-26 -45q-149 54 -299 152h-4q-67 -44 -141.5 -82t-115.5 -54l-42 -16z" />
<glyph unicode="&#xcb;" horiz-adv-x="1234" d="M92 -4v70l184 8v1143l-184 8v69q30 0 170 -4t262 -4q101 0 276 4t238 4l21 -348h-74l-16 88q-15 84 -79 133.5t-167 49.5h-238v-512l213 8q33 1 57.5 13.5t36 30t18 34t6.5 28.5l1 12h74v-376h-74q0 7 -1 19t-8.5 42.5t-21 54t-43 43.5t-69.5 21h-189v-561h240 q121 0 204 70.5t103 195.5l6 39h74l-12 -383q-81 0 -240.5 4t-271.5 4q-151 0 -310.5 -4t-185.5 -4zM293 1565q0 49 34.5 83.5t84.5 34.5t84 -34.5t34 -83.5q0 -50 -34.5 -84.5t-83.5 -34.5q-50 0 -84.5 35t-34.5 84zM719 1565q0 49 34.5 83.5t84.5 34.5t84 -34.5t34 -83.5 q0 -50 -34.5 -84.5t-83.5 -34.5q-50 0 -84.5 35t-34.5 84z" />
<glyph unicode="&#xcc;" horiz-adv-x="753" d="M92 -4v70l180 8v1143l-180 8v69q46 0 151 -4t134 -4t134 4t151 4v-69l-181 -8v-1143l181 -8v-70q-46 0 -151 4t-134 4t-134 -4t-151 -4zM115 1649q0 33 23.5 57.5t60.5 24.5q49 0 94 -41l258 -244l-29 -43l-329 141q-78 35 -78 105z" />
<glyph unicode="&#xcd;" horiz-adv-x="753" d="M92 -4v70l180 8v1143l-180 8v69q46 0 151 -4t134 -4t134 4t151 4v-69l-181 -8v-1143l181 -8v-70q-46 0 -151 4t-134 4t-134 -4t-151 -4zM223 1446l258 244q45 41 94 41q37 0 60.5 -24.5t23.5 -57.5q0 -70 -77 -105l-330 -141z" />
<glyph unicode="&#xce;" horiz-adv-x="753" d="M55 1495q98 70 211 203q29 35 54.5 51t62.5 16t62.5 -16t54.5 -51q50 -59 103 -110t81 -72l27 -21l-27 -45q-149 54 -299 152h-4q-67 -44 -141.5 -82t-115.5 -54l-42 -16zM92 -4v70l180 8v1143l-180 8v69q46 0 151 -4t134 -4t134 4t151 4v-69l-181 -8v-1143l181 -8v-70 q-46 0 -151 4t-134 4t-134 -4t-151 -4z" />
<glyph unicode="&#xcf;" horiz-adv-x="753" d="M51 1565q0 49 34.5 83.5t84.5 34.5t84.5 -34.5t34.5 -83.5t-34.5 -84t-84.5 -35t-84.5 35t-34.5 84zM92 -4v70l180 8v1143l-180 8v69q46 0 151 -4t134 -4t134 4t151 4v-69l-181 -8v-1143l181 -8v-70q-46 0 -151 4t-134 4t-134 -4t-151 -4zM477 1565q0 49 34.5 83.5 t84.5 34.5t84.5 -34.5t34.5 -83.5t-34.5 -84t-84.5 -35t-84.5 35t-34.5 84z" />
<glyph unicode="&#xd0;" horiz-adv-x="1468" d="M92 -4v70l184 6v559h-184v76h184v512l-184 6v69q47 0 143.5 -2t133.5 -2q35 0 150 1t167 1q149 0 270 -36.5t211.5 -110t139.5 -192.5t49 -277q0 -201 -67 -352.5t-206.5 -239.5t-337.5 -88q-82 0 -214.5 2t-161.5 2q-34 0 -132 -2t-145 -2zM485 66h222q76 0 138 20 t105.5 53t76 81.5t52 101t31.5 117t16 122t4 123.5q0 541 -452 541h-193v-518h312v-76h-312v-565z" />
<glyph unicode="&#xd1;" horiz-adv-x="1431" d="M61 -4v70q45 0 69.5 1.5t51.5 7.5t39.5 18t24 34t15 54t3.5 79v770q0 54 -11.5 91.5t-28.5 57.5t-46.5 30.5t-53.5 13t-63 2.5v69l345 -8l698 -985h2v729q0 47 -3.5 79t-15 54t-24 34t-39 18.5t-51.5 8t-70 1.5v69q53 0 129 -4t115 -4t115 4t129 4v-69q-45 0 -70 -1.5 t-51.5 -8t-39 -18.5t-24 -34t-15 -54t-3.5 -79v-1005l-131 -27l-709 1003h-2v-741q0 -47 3.5 -79t14.5 -54t23.5 -34t39.5 -18t51.5 -7.5t70.5 -1.5v-70q-53 0 -129 4t-115 4t-115 -4t-129 -4zM440 1466q34 124 83 174t120 50q54 0 164.5 -45.5t159.5 -45.5q38 0 63.5 23.5 t44.5 75.5l62 -23q-34 -123 -83 -173t-120 -50q-54 0 -164.5 45t-159.5 45q-38 0 -63.5 -23t-44.5 -75z" />
<glyph unicode="&#xd2;" d="M113 633q0 146 39.5 265.5t103 197t147.5 131t169 76t171 22.5q88 0 173 -20.5t169.5 -71t147.5 -125t102 -192t39 -263.5q0 -147 -38.5 -267t-101.5 -198t-146.5 -131.5t-170 -76.5t-174.5 -23t-173 21t-169 71.5t-147 125.5t-102 193t-39 265zM352 643 q0 -158 29.5 -277.5t83 -191.5t123 -107.5t155.5 -35.5q176 0 284 157t108 455t-108 453t-284 155q-175 0 -283 -155t-108 -453zM481 1649q0 33 23.5 57.5t60.5 24.5q49 0 94 -41l259 -244l-29 -43l-330 141q-78 35 -78 105z" />
<glyph unicode="&#xd3;" d="M113 633q0 146 39.5 265.5t103 197t147.5 131t169 76t171 22.5q88 0 173 -20.5t169.5 -71t147.5 -125t102 -192t39 -263.5q0 -147 -38.5 -267t-101.5 -198t-146.5 -131.5t-170 -76.5t-174.5 -23t-173 21t-169 71.5t-147 125.5t-102 193t-39 265zM352 643 q0 -158 29.5 -277.5t83 -191.5t123 -107.5t155.5 -35.5q176 0 284 157t108 455t-108 453t-284 155q-175 0 -283 -155t-108 -453zM590 1446l258 244q45 41 94 41q37 0 60.5 -24.5t23.5 -57.5q0 -70 -78 -105l-330 -141z" />
<glyph unicode="&#xd4;" d="M113 633q0 146 39.5 265.5t103 197t147.5 131t169 76t171 22.5q88 0 173 -20.5t169.5 -71t147.5 -125t102 -192t39 -263.5q0 -147 -38.5 -267t-101.5 -198t-146.5 -131.5t-170 -76.5t-174.5 -23t-173 21t-169 71.5t-147 125.5t-102 193t-39 265zM352 643 q0 -158 29.5 -277.5t83 -191.5t123 -107.5t155.5 -35.5q176 0 284 157t108 455t-108 453t-284 155q-175 0 -283 -155t-108 -453zM422 1495q98 70 211 203q29 35 54.5 51t62.5 16t62 -16t54 -51q50 -59 103 -110t81 -72l27 -21l-26 -45q-149 54 -299 152h-4 q-67 -44 -141.5 -82t-116.5 -54l-41 -16z" />
<glyph unicode="&#xd5;" d="M113 633q0 146 39.5 265.5t103 197t147.5 131t169 76t171 22.5q88 0 173 -20.5t169.5 -71t147.5 -125t102 -192t39 -263.5q0 -147 -38.5 -267t-101.5 -198t-146.5 -131.5t-170 -76.5t-174.5 -23t-173 21t-169 71.5t-147 125.5t-102 193t-39 265zM352 643 q0 -158 29.5 -277.5t83 -191.5t123 -107.5t155.5 -35.5q176 0 284 157t108 455t-108 453t-284 155q-175 0 -283 -155t-108 -453zM428 1466q34 124 83 174t120 50q54 0 164 -45.5t159 -45.5q38 0 64 23.5t45 75.5l61 -23q-34 -124 -82.5 -173.5t-119.5 -49.5q-54 0 -164.5 45 t-159.5 45q-39 0 -64.5 -23t-44.5 -75z" />
<glyph unicode="&#xd6;" d="M113 633q0 146 39.5 265.5t103 197t147.5 131t169 76t171 22.5q88 0 173 -20.5t169.5 -71t147.5 -125t102 -192t39 -263.5q0 -147 -38.5 -267t-101.5 -198t-146.5 -131.5t-170 -76.5t-174.5 -23t-173 21t-169 71.5t-147 125.5t-102 193t-39 265zM352 643 q0 -158 29.5 -277.5t83 -191.5t123 -107.5t155.5 -35.5q176 0 284 157t108 455t-108 453t-284 155q-175 0 -283 -155t-108 -453zM418 1565q0 49 34.5 83.5t84.5 34.5q49 0 83.5 -34.5t34.5 -83.5q0 -50 -34.5 -84.5t-83.5 -34.5t-84 35t-35 84zM844 1565q0 49 34.5 83.5 t84.5 34.5q49 0 83.5 -34.5t34.5 -83.5q0 -50 -34.5 -84.5t-83.5 -34.5t-84 35t-35 84z" />
<glyph unicode="&#xd7;" horiz-adv-x="1087" d="M102 78l369 395l-365 393l74 68l361 -387l360 387l74 -68l-367 -393l371 -395l-74 -70l-364 391l-365 -391z" />
<glyph unicode="&#xd8;" d="M113 633q0 146 39.5 265.5t103 197t147.5 131t169 76t171 22.5q98 0 179 -22l77 235l70 -20l-78 -238q64 -24 119 -60t104.5 -90.5t84 -122.5t55 -158.5t20.5 -195.5q0 -147 -38.5 -267t-101.5 -198t-146.5 -131.5t-170 -76.5t-174.5 -23q-90 0 -178 23l-78 -240l-69 22 l78 240q-63 24 -118 60.5t-104.5 91.5t-84.5 123t-55.5 159t-20.5 197zM352 643q0 -395 178 -539l365 1113q-69 34 -152 34q-175 0 -283 -155t-108 -453zM594 63q63 -32 149 -32q176 0 284 157t108 455q0 192 -47 327t-132 206z" />
<glyph unicode="&#xd9;" horiz-adv-x="1372" d="M41 1223v69q46 0 153 -4t136 -4t124.5 4t141.5 4v-69l-162 -9v-655q0 -246 74 -360.5t237 -114.5q30 0 59 5t62 18.5t61.5 35t55.5 57.5t46 82.5t30.5 114t11.5 148.5v483q0 47 -3.5 79t-14 54t-22.5 34t-38.5 18.5t-51 8t-69.5 1.5v69q54 0 128 -4t112 -4t112 4t128 4 v-69q-45 0 -69.5 -1.5t-51 -8t-38.5 -18.5t-22.5 -34t-14 -54t-3.5 -79v-487q0 -153 -34.5 -264.5t-98 -177t-145.5 -96t-185 -30.5q-77 0 -142.5 14t-127.5 49t-104.5 90.5t-68.5 143t-26 201.5v743zM471 1649q0 33 23.5 57.5t60.5 24.5q49 0 94 -41l258 -244l-28 -43 l-330 141q-78 35 -78 105z" />
<glyph unicode="&#xda;" horiz-adv-x="1372" d="M41 1223v69q46 0 153 -4t136 -4t124.5 4t141.5 4v-69l-162 -9v-655q0 -246 74 -360.5t237 -114.5q30 0 59 5t62 18.5t61.5 35t55.5 57.5t46 82.5t30.5 114t11.5 148.5v483q0 47 -3.5 79t-14 54t-22.5 34t-38.5 18.5t-51 8t-69.5 1.5v69q54 0 128 -4t112 -4t112 4t128 4 v-69q-45 0 -69.5 -1.5t-51 -8t-38.5 -18.5t-22.5 -34t-14 -54t-3.5 -79v-487q0 -153 -34.5 -264.5t-98 -177t-145.5 -96t-185 -30.5q-77 0 -142.5 14t-127.5 49t-104.5 90.5t-68.5 143t-26 201.5v743zM580 1446l258 244q45 41 94 41q37 0 60.5 -24.5t23.5 -57.5 q0 -70 -78 -105l-330 -141z" />
<glyph unicode="&#xdb;" horiz-adv-x="1372" d="M41 1223v69q46 0 153 -4t136 -4t124.5 4t141.5 4v-69l-162 -9v-655q0 -246 74 -360.5t237 -114.5q30 0 59 5t62 18.5t61.5 35t55.5 57.5t46 82.5t30.5 114t11.5 148.5v483q0 47 -3.5 79t-14 54t-22.5 34t-38.5 18.5t-51 8t-69.5 1.5v69q54 0 128 -4t112 -4t112 4t128 4 v-69q-45 0 -69.5 -1.5t-51 -8t-38.5 -18.5t-22.5 -34t-14 -54t-3.5 -79v-487q0 -153 -34.5 -264.5t-98 -177t-145.5 -96t-185 -30.5q-77 0 -142.5 14t-127.5 49t-104.5 90.5t-68.5 143t-26 201.5v743zM412 1495q98 70 211 203q29 35 54 51t62 16t62.5 -16t54.5 -51 q50 -59 103 -110t81 -72l27 -21l-27 -45q-149 54 -299 152h-4q-67 -44 -141.5 -82t-115.5 -54l-42 -16z" />
<glyph unicode="&#xdc;" horiz-adv-x="1372" d="M41 1223v69q46 0 153 -4t136 -4t124.5 4t141.5 4v-69l-162 -9v-655q0 -246 74 -360.5t237 -114.5q30 0 59 5t62 18.5t61.5 35t55.5 57.5t46 82.5t30.5 114t11.5 148.5v483q0 47 -3.5 79t-14 54t-22.5 34t-38.5 18.5t-51 8t-69.5 1.5v69q54 0 128 -4t112 -4t112 4t128 4 v-69q-45 0 -69.5 -1.5t-51 -8t-38.5 -18.5t-22.5 -34t-14 -54t-3.5 -79v-487q0 -153 -34.5 -264.5t-98 -177t-145.5 -96t-185 -30.5q-77 0 -142.5 14t-127.5 49t-104.5 90.5t-68.5 143t-26 201.5v743zM408 1565q0 49 34 83.5t84 34.5t84.5 -34.5t34.5 -83.5t-34.5 -84 t-84.5 -35q-49 0 -83.5 34.5t-34.5 84.5zM834 1565q0 49 34 83.5t84 34.5t84.5 -34.5t34.5 -83.5t-34.5 -84t-84.5 -35q-49 0 -83.5 34.5t-34.5 84.5z" />
<glyph unicode="&#xdd;" horiz-adv-x="1308" d="M10 1225v69q58 0 141 -4t134 -4q46 0 143.5 4t169.5 4v-69l-184 -11l311 -561h8q16 34 42 81t75 133t92 163q66 109 41 152t-170 43v69q51 0 132 -4t132 -4q37 0 107.5 4t124.5 4v-69q-106 0 -165 -43t-120 -154q-27 -49 -67 -121t-56.5 -101t-42.5 -77t-34 -66 t-22.5 -51.5t-17.5 -48.5t-9 -41.5t-6.5 -47.5t-0.5 -50v-350l180 -8v-70q-46 0 -150.5 4t-133.5 4t-134 -4t-151 -4v70l180 8v446l-389 694zM580 1446l258 244q45 41 94 41q37 0 60.5 -24.5t23.5 -57.5q0 -70 -78 -105l-330 -141z" />
<glyph unicode="&#xde;" horiz-adv-x="1226" d="M92 -4v70l180 8v1143l-180 8v69q46 0 151 -4t134 -4t134 4t151 4v-69l-181 -8v-201h158q107 2 196 -14.5t162.5 -54t114.5 -105.5t41 -162q0 -99 -37 -173t-104 -118t-153 -65t-191 -21h-187v-229l181 -8v-70q-46 0 -151 4t-134 4t-134 -4t-151 -4zM481 369h178 q64 0 112 17t77.5 45t47.5 69t25 83.5t7 94.5q0 272 -293 272h-154v-581z" />
<glyph unicode="&#xdf;" horiz-adv-x="1245" d="M61 4v70l166 4v778h-166v80q47 0 66.5 0.5t46.5 3t35.5 7t19.5 15t14 24.5t5 36q7 108 51.5 195.5t112.5 143t152 85t175 29.5q61 0 121.5 -16t114.5 -46.5t87.5 -84t33.5 -120.5q0 -54 -21.5 -97.5t-53 -70t-69 -53t-69 -47t-53 -51.5t-21.5 -68q0 -22 7.5 -43t17 -36 t29.5 -34t32.5 -29t40 -31t39.5 -30q14 -11 47 -36t51 -40t44.5 -43.5t40.5 -55t25 -66t11 -84.5q0 -81 -29 -145.5t-77 -103.5t-106 -59t-120 -20q-124 0 -199 53.5t-75 147.5q0 58 35 93.5t88 35.5q42 0 70 -30t28 -75q0 -29 -13.5 -52t-27.5 -32l-14 -8q2 -24 31 -43.5 t77 -19.5q79 0 126.5 55.5t47.5 136.5q0 33 -7 59t-27.5 52t-32.5 39t-49 44.5t-50 43.5q-20 18 -56 46t-57.5 47t-45.5 45.5t-35.5 57t-11.5 66.5q0 46 14 85t36.5 66.5t49.5 52.5t54 49.5t49.5 52t36.5 66.5t14 85q0 36 -9.5 72.5t-30.5 73t-62 59t-97 22.5 q-323 0 -309 -547l4 -157v-723z" />
<glyph unicode="&#xe0;" horiz-adv-x="1060" d="M82 240q0 55 19 99.5t49 74.5t77.5 51.5t95.5 33.5t112 19t117.5 8.5t121.5 1.5v58q1 56 0 103.5t-10.5 86.5t-27.5 67t-50.5 43t-79.5 15q-44 0 -81.5 -9.5t-60 -24t-35 -26t-18.5 -20.5q5 -3 11.5 -8.5t18 -27t11.5 -46.5q0 -40 -27 -67t-71 -27t-75.5 30t-31.5 83 q0 93 109 153t276 60q68 0 121 -12t87 -33t58.5 -50t35.5 -62.5t18 -70t6 -73t0 -72.5l-10 -412q-2 -54 17 -84t55 -30q28 0 49 24.5t28 49.5l7 24l67 -16q-1 -7 -4.5 -19.5t-19 -44t-36.5 -55.5t-62 -44t-91 -20q-143 0 -182 146h-4q-90 -158 -277 -158q-58 0 -110 14.5 t-99.5 45t-75.5 87.5t-28 134zM268 1442q0 35 23.5 57.5t56.5 22.5q61 0 115 -78l213 -318l-37 -34l-303 241q-68 57 -68 109zM279 266q0 -94 43 -148.5t127 -54.5q83 0 148.5 67t68.5 177l4 152q-119 1 -196.5 -10t-120 -37t-58.5 -60t-16 -86z" />
<glyph unicode="&#xe1;" horiz-adv-x="1060" d="M82 240q0 55 19 99.5t49 74.5t77.5 51.5t95.5 33.5t112 19t117.5 8.5t121.5 1.5v58q1 56 0 103.5t-10.5 86.5t-27.5 67t-50.5 43t-79.5 15q-44 0 -81.5 -9.5t-60 -24t-35 -26t-18.5 -20.5q5 -3 11.5 -8.5t18 -27t11.5 -46.5q0 -40 -27 -67t-71 -27t-75.5 30t-31.5 83 q0 93 109 153t276 60q68 0 121 -12t87 -33t58.5 -50t35.5 -62.5t18 -70t6 -73t0 -72.5l-10 -412q-2 -54 17 -84t55 -30q28 0 49 24.5t28 49.5l7 24l67 -16q-1 -7 -4.5 -19.5t-19 -44t-36.5 -55.5t-62 -44t-91 -20q-143 0 -182 146h-4q-90 -158 -277 -158q-58 0 -110 14.5 t-99.5 45t-75.5 87.5t-28 134zM279 266q0 -94 43 -148.5t127 -54.5q83 0 148.5 67t68.5 177l4 152q-119 1 -196.5 -10t-120 -37t-58.5 -60t-16 -86zM389 1126l213 318q54 78 115 78q33 0 56.5 -22.5t23.5 -57.5q0 -52 -68 -109l-303 -241z" />
<glyph unicode="&#xe2;" horiz-adv-x="1060" d="M82 240q0 55 19 99.5t49 74.5t77.5 51.5t95.5 33.5t112 19t117.5 8.5t121.5 1.5v58q1 56 0 103.5t-10.5 86.5t-27.5 67t-50.5 43t-79.5 15q-44 0 -81.5 -9.5t-60 -24t-35 -26t-18.5 -20.5q5 -3 11.5 -8.5t18 -27t11.5 -46.5q0 -40 -27 -67t-71 -27t-75.5 30t-31.5 83 q0 93 109 153t276 60q68 0 121 -12t87 -33t58.5 -50t35.5 -62.5t18 -70t6 -73t0 -72.5l-10 -412q-2 -54 17 -84t55 -30q28 0 49 24.5t28 49.5l7 24l67 -16q-1 -7 -4.5 -19.5t-19 -44t-36.5 -55.5t-62 -44t-91 -20q-143 0 -182 146h-4q-90 -158 -277 -158q-58 0 -110 14.5 t-99.5 45t-75.5 87.5t-28 134zM233 1133q78 124 189 317q26 45 50 64.5t60 19.5q37 0 61 -19.5t50 -64.5q49 -86 96 -165t69 -115l23 -37l-40 -31q-123 112 -256 268h-5q-59 -69 -123 -136t-99 -100l-34 -32zM279 266q0 -94 43 -148.5t127 -54.5q83 0 148.5 67t68.5 177 l4 152q-119 1 -196.5 -10t-120 -37t-58.5 -60t-16 -86z" />
<glyph unicode="&#xe3;" horiz-adv-x="1060" d="M82 240q0 55 19 99.5t49 74.5t77.5 51.5t95.5 33.5t112 19t117.5 8.5t121.5 1.5v58q1 56 0 103.5t-10.5 86.5t-27.5 67t-50.5 43t-79.5 15q-44 0 -81.5 -9.5t-60 -24t-35 -26t-18.5 -20.5q5 -3 11.5 -8.5t18 -27t11.5 -46.5q0 -40 -27 -67t-71 -27t-75.5 30t-31.5 83 q0 93 109 153t276 60q68 0 121 -12t87 -33t58.5 -50t35.5 -62.5t18 -70t6 -73t0 -72.5l-10 -412q-2 -54 17 -84t55 -30q28 0 49 24.5t28 49.5l7 24l67 -16q-1 -7 -4.5 -19.5t-19 -44t-36.5 -55.5t-62 -44t-91 -20q-143 0 -182 146h-4q-90 -158 -277 -158q-58 0 -110 14.5 t-99.5 45t-75.5 87.5t-28 134zM213 1206q35 128 84 187t117 59q45 0 98.5 -28t102 -56.5t81.5 -28.5q67 0 111 123l57 -18q-35 -128 -83.5 -187t-116.5 -59q-36 0 -78 17.5t-73.5 39t-68.5 39t-63 17.5q-67 0 -111 -123zM279 266q0 -94 43 -148.5t127 -54.5q83 0 148.5 67 t68.5 177l4 152q-119 1 -196.5 -10t-120 -37t-58.5 -60t-16 -86z" />
<glyph unicode="&#xe4;" horiz-adv-x="1060" d="M82 240q0 55 19 99.5t49 74.5t77.5 51.5t95.5 33.5t112 19t117.5 8.5t121.5 1.5v58q1 56 0 103.5t-10.5 86.5t-27.5 67t-50.5 43t-79.5 15q-44 0 -81.5 -9.5t-60 -24t-35 -26t-18.5 -20.5q5 -3 11.5 -8.5t18 -27t11.5 -46.5q0 -40 -27 -67t-71 -27t-75.5 30t-31.5 83 q0 93 109 153t276 60q68 0 121 -12t87 -33t58.5 -50t35.5 -62.5t18 -70t6 -73t0 -72.5l-10 -412q-2 -54 17 -84t55 -30q28 0 49 24.5t28 49.5l7 24l67 -16q-1 -7 -4.5 -19.5t-19 -44t-36.5 -55.5t-62 -44t-91 -20q-143 0 -182 146h-4q-90 -158 -277 -158q-58 0 -110 14.5 t-99.5 45t-75.5 87.5t-28 134zM197 1315q0 50 34.5 84.5t83.5 34.5t84 -35t35 -84t-35 -84t-84 -35t-83.5 34.5t-34.5 84.5zM279 266q0 -94 43 -148.5t127 -54.5q83 0 148.5 67t68.5 177l4 152q-119 1 -196.5 -10t-120 -37t-58.5 -60t-16 -86zM623 1315q0 50 34.5 84.5 t83.5 34.5t84 -35t35 -84t-35 -84t-84 -35t-83.5 34.5t-34.5 84.5z" />
<glyph unicode="&#xe5;" horiz-adv-x="1060" d="M82 240q0 55 19 99.5t49 74.5t77.5 51.5t95.5 33.5t112 19t117.5 8.5t121.5 1.5v58q1 56 0 103.5t-10.5 86.5t-27.5 67t-50.5 43t-79.5 15q-44 0 -81.5 -9.5t-60 -24t-35 -26t-18.5 -20.5q5 -3 11.5 -8.5t18 -27t11.5 -46.5q0 -40 -27 -67t-71 -27t-75.5 30t-31.5 83 q0 93 109 153t276 60q68 0 121 -12t87 -33t58.5 -50t35.5 -62.5t18 -70t6 -73t0 -72.5l-10 -412q-2 -54 17 -84t55 -30q28 0 49 24.5t28 49.5l7 24l67 -16q-1 -7 -4.5 -19.5t-19 -44t-36.5 -55.5t-62 -44t-91 -20q-143 0 -182 146h-4q-90 -158 -277 -158q-58 0 -110 14.5 t-99.5 45t-75.5 87.5t-28 134zM279 266q0 -94 43 -148.5t127 -54.5q83 0 148.5 67t68.5 177l4 152q-119 1 -196.5 -10t-120 -37t-58.5 -60t-16 -86zM293 1296q0 90 67.5 150.5t167.5 60.5q104 0 170 -59.5t66 -151.5q0 -91 -66 -151t-170 -60q-107 0 -171 58.5t-64 152.5z M420 1296q0 -67 28 -107t80 -40t80.5 39.5t28.5 107.5q0 66 -29 107t-80 41t-79.5 -39.5t-28.5 -108.5z" />
<glyph unicode="&#xe6;" horiz-adv-x="1527" d="M72 240q0 54 17.5 98t47 75.5t74.5 55.5t93.5 39t111 25t120 15t126.5 7h2v31q1 57 0 105t-11 87t-27.5 66.5t-49.5 42t-78 14.5q-42 0 -77.5 -8t-56.5 -20t-36.5 -24t-21.5 -20l-5 -8q5 -3 11.5 -8.5t18 -27t11.5 -46.5q0 -39 -26.5 -66.5t-71.5 -27.5q-46 0 -76.5 31 t-30.5 82q0 93 109 153t276 60q205 0 279 -113q64 57 139.5 85t142.5 28q68 0 124 -14t93.5 -37t66 -55t45 -64.5t26.5 -70t13 -67t3 -59.5q0 -24 -2 -49t-4 -38l-2 -13l-594 -10v-25q0 -41 1 -69t6 -76.5t14.5 -81.5t29 -73t46 -64.5t68.5 -41t95 -16.5q52 0 101.5 20 t83 48.5t59.5 57.5t38 49l13 20l59 -37q-5 -10 -14.5 -26t-44 -57.5t-74.5 -73t-104.5 -57.5t-134.5 -26q-278 0 -389 215q-35 -98 -115 -159.5t-201 -61.5q-65 0 -120 16t-100 48t-71 88t-26 129zM268 266q0 -94 43 -148.5t127 -54.5q79 0 141 58t74 151l9 217 q-153 -3 -240 -28.5t-120.5 -71.5t-33.5 -123zM854 561l391 12q8 44 8 89q0 239 -178 239q-198 0 -221 -340z" />
<glyph unicode="&#xe7;" horiz-adv-x="925" d="M82 471q0 106 30 193.5t78.5 143.5t111.5 94t125.5 54.5t123.5 16.5q79 0 140 -18t94.5 -44t54.5 -60.5t27.5 -62.5t6.5 -55q0 -62 -35.5 -99.5t-86.5 -37.5q-43 0 -72 28t-29 70q0 24 8 43t20 28.5t24 16t20 8.5l8 1q0 14 -8 31t-24.5 35.5t-50 31t-77.5 12.5 q-70 0 -122 -26t-81.5 -66t-47.5 -99.5t-23.5 -115.5t-5.5 -125q0 -41 1 -68.5t6 -76t14.5 -82t29 -73t46 -64t68.5 -41.5t95 -17q52 0 101.5 20t83 48.5t59.5 57.5t39 49l12 20l59 -37q-5 -10 -15 -26t-44.5 -57.5t-74 -73t-104.5 -57.5t-135 -26h-8l-12 -84q43 4 83 -1.5 t78.5 -24t61.5 -59t23 -99.5q0 -73 -53 -128.5t-127.5 -76.5t-162.5 -1t-151 85l35 47q62 -47 131 -52.5t115.5 31t46.5 101.5q0 62 -44 87t-122 13l27 166q-176 25 -273.5 153.5t-97.5 348.5z" />
<glyph unicode="&#xe8;" horiz-adv-x="976" d="M82 471q0 105 30 192t76.5 142.5t106 94t117 55t110.5 16.5q93 0 164 -27t109 -66t61.5 -92t30 -95t6.5 -85q0 -24 -2 -49.5t-4 -38.5l-2 -14h-594v-42.5t0.5 -54.5t3.5 -57t8 -62.5t14.5 -59t22 -58t32.5 -48t45 -41t59 -24.5t75 -10q52 0 101.5 20t83 48.5t59.5 57.5 t39 49l12 20l59 -37q-5 -10 -15 -26t-44.5 -57.5t-74 -73t-104.5 -57.5t-135 -26q-213 0 -331.5 130.5t-118.5 375.5zM252 1442q0 35 23.5 57.5t56.5 22.5q60 0 114 -78l213 -318l-36 -34l-304 241q-67 56 -67 109zM295 573h389q8 41 8 86q0 242 -178 242q-195 0 -219 -328z " />
<glyph unicode="&#xe9;" horiz-adv-x="976" d="M82 471q0 105 30 192t76.5 142.5t106 94t117 55t110.5 16.5q93 0 164 -27t109 -66t61.5 -92t30 -95t6.5 -85q0 -24 -2 -49.5t-4 -38.5l-2 -14h-594v-42.5t0.5 -54.5t3.5 -57t8 -62.5t14.5 -59t22 -58t32.5 -48t45 -41t59 -24.5t75 -10q52 0 101.5 20t83 48.5t59.5 57.5 t39 49l12 20l59 -37q-5 -10 -15 -26t-44.5 -57.5t-74 -73t-104.5 -57.5t-135 -26q-213 0 -331.5 130.5t-118.5 375.5zM295 573h389q8 41 8 86q0 242 -178 242q-195 0 -219 -328zM389 1126l213 318q54 78 115 78q33 0 56.5 -22.5t23.5 -57.5q0 -52 -68 -109l-303 -241z" />
<glyph unicode="&#xea;" horiz-adv-x="976" d="M82 471q0 105 30 192t76.5 142.5t106 94t117 55t110.5 16.5q93 0 164 -27t109 -66t61.5 -92t30 -95t6.5 -85q0 -24 -2 -49.5t-4 -38.5l-2 -14h-594v-42.5t0.5 -54.5t3.5 -57t8 -62.5t14.5 -59t22 -58t32.5 -48t45 -41t59 -24.5t75 -10q52 0 101.5 20t83 48.5t59.5 57.5 t39 49l12 20l59 -37q-5 -10 -15 -26t-44.5 -57.5t-74 -73t-104.5 -57.5t-135 -26q-213 0 -331.5 130.5t-118.5 375.5zM229 1133q78 124 189 317q26 45 50 64.5t60 19.5q37 0 61 -19.5t50 -64.5q49 -86 96 -165t69 -115l23 -37l-41 -31q-123 112 -256 268h-4 q-59 -69 -123 -136t-99 -100l-34 -32zM295 573h389q8 41 8 86q0 242 -178 242q-195 0 -219 -328z" />
<glyph unicode="&#xeb;" horiz-adv-x="976" d="M82 471q0 105 30 192t76.5 142.5t106 94t117 55t110.5 16.5q93 0 164 -27t109 -66t61.5 -92t30 -95t6.5 -85q0 -24 -2 -49.5t-4 -38.5l-2 -14h-594v-42.5t0.5 -54.5t3.5 -57t8 -62.5t14.5 -59t22 -58t32.5 -48t45 -41t59 -24.5t75 -10q52 0 101.5 20t83 48.5t59.5 57.5 t39 49l12 20l59 -37q-5 -10 -15 -26t-44.5 -57.5t-74 -73t-104.5 -57.5t-135 -26q-213 0 -331.5 130.5t-118.5 375.5zM203 1315q0 49 34.5 84t84.5 35q49 0 83.5 -34.5t34.5 -84.5t-34.5 -84.5t-83.5 -34.5q-50 0 -84.5 35t-34.5 84zM295 573h389q8 41 8 86q0 242 -178 242 q-195 0 -219 -328zM629 1315q0 49 34.5 84t84.5 35q49 0 83.5 -34.5t34.5 -84.5t-34.5 -84.5t-83.5 -34.5q-50 0 -84.5 35t-34.5 84z" />
<glyph unicode="&#xec;" horiz-adv-x="602" d="M61 -4v70l166 10v676q0 28 -3 47.5t-13.5 32t-19 19t-33.5 9.5t-41 3.5t-56 0.5v70l355 20v-878l166 -10v-70q-46 0 -122 4t-138 4t-137.5 -4t-123.5 -4zM72 1442q0 35 23.5 57.5t56.5 22.5q60 0 114 -78l213 -318l-37 -34l-303 241q-67 56 -67 109z" />
<glyph unicode="&#xed;" horiz-adv-x="602" d="M61 -4v70l166 10v676q0 28 -3 47.5t-13.5 32t-19 19t-33.5 9.5t-41 3.5t-56 0.5v70l355 20v-878l166 -10v-70q-46 0 -122 4t-138 4t-137.5 -4t-123.5 -4zM176 1126l213 318q54 78 115 78q33 0 56.5 -22.5t23.5 -57.5q0 -52 -68 -109l-303 -241z" />
<glyph unicode="&#xee;" horiz-adv-x="602" d="M12 1133q78 124 189 317q26 45 50 64.5t60 19.5q37 0 61 -19.5t50 -64.5q49 -86 96 -165t70 -115l22 -37l-41 -31q-123 112 -256 268h-4q-59 -69 -123 -136t-98 -100l-35 -32zM61 -4v70l166 10v676q0 28 -3 47.5t-13.5 32t-19 19t-33.5 9.5t-41 3.5t-56 0.5v70l355 20 v-878l166 -10v-70q-46 0 -122 4t-138 4t-137.5 -4t-123.5 -4z" />
<glyph unicode="&#xef;" horiz-adv-x="602" d="M31 1315q0 49 34.5 84t84.5 35q49 0 83.5 -34.5t34.5 -84.5t-34.5 -84.5t-83.5 -34.5q-50 0 -84.5 35t-34.5 84zM61 -4v70l166 10v676q0 28 -3 47.5t-13.5 32t-19 19t-33.5 9.5t-41 3.5t-56 0.5v70l355 20v-878l166 -10v-70q-46 0 -122 4t-138 4t-137.5 -4t-123.5 -4z M375 1315q0 49 34.5 84t84.5 35q49 0 83.5 -34.5t34.5 -84.5t-34.5 -84.5t-83.5 -34.5q-50 0 -84.5 35t-34.5 84z" />
<glyph unicode="&#xf0;" horiz-adv-x="1087" d="M76 457q0 98 26 182.5t69 144t99.5 102t117.5 63t122 20.5q178 0 268 -90q-47 181 -143 297l-264 -121l-31 67l242 111q-110 104 -283 168l23 61q210 -47 374 -176l207 94l33 -67l-180 -82q252 -249 252 -674q0 -130 -28 -236.5t-84 -185.5t-146 -122.5t-207 -43.5 q-101 0 -184.5 28.5t-147.5 86.5t-99.5 153t-35.5 220zM293 485q0 -446 250 -446q52 0 93.5 20.5t68.5 51.5t47 79.5t30.5 91t17 102t8.5 96t3 87.5q0 153 -68.5 235.5t-189.5 82.5q-56 0 -101.5 -24t-74.5 -63t-48.5 -92t-27.5 -108t-8 -113z" />
<glyph unicode="&#xf1;" horiz-adv-x="1243" d="M61 -4v70l166 10v680q0 18 -2 32.5t-4 25.5t-9.5 18.5t-12 13t-18.5 9t-21 5.5t-28 3t-32 1h-39v70l338 20l7 -194h2q60 94 149.5 150.5t204.5 56.5q131 0 206.5 -88.5t75.5 -270.5v-532l168 -10v-70q-48 0 -123 4t-137 4t-137 -4t-123 -4v70l166 10v473q0 174 -34 247.5 t-130 73.5q-47 0 -96 -25t-89.5 -68t-66.5 -109.5t-26 -141.5v-450l166 -10v-70q-46 0 -122 4t-138 4t-137.5 -4t-123.5 -4zM305 1206q35 128 84 187t117 59q45 0 98.5 -28t102 -56.5t81.5 -28.5q67 0 111 123l57 -18q-35 -128 -83.5 -187t-116.5 -59q-36 0 -78 17.5 t-73.5 39t-68.5 39t-63 17.5q-67 0 -111 -123z" />
<glyph unicode="&#xf2;" horiz-adv-x="1099" d="M82 459q0 126 39.5 226t106 160.5t148.5 92t173 31.5q93 0 175 -28.5t149 -85.5t106 -153.5t39 -222.5q0 -127 -38.5 -226.5t-105 -160.5t-149 -92t-176.5 -31q-93 0 -174.5 28t-148.5 85t-105.5 153.5t-38.5 223.5zM279 1442q0 35 23 57.5t56 22.5q61 0 115 -78 l213 -318l-37 -34l-303 241q-67 56 -67 109zM299 469q0 -430 250 -430q252 0 252 430t-252 430q-250 0 -250 -430z" />
<glyph unicode="&#xf3;" horiz-adv-x="1099" d="M82 459q0 126 39.5 226t106 160.5t148.5 92t173 31.5q93 0 175 -28.5t149 -85.5t106 -153.5t39 -222.5q0 -127 -38.5 -226.5t-105 -160.5t-149 -92t-176.5 -31q-93 0 -174.5 28t-148.5 85t-105.5 153.5t-38.5 223.5zM299 469q0 -430 250 -430q252 0 252 430t-252 430 q-250 0 -250 -430zM424 1126l213 318q54 78 115 78q33 0 56 -22.5t23 -57.5q0 -53 -67 -109l-303 -241z" />
<glyph unicode="&#xf4;" horiz-adv-x="1099" d="M82 459q0 126 39.5 226t106 160.5t148.5 92t173 31.5q93 0 175 -28.5t149 -85.5t106 -153.5t39 -222.5q0 -127 -38.5 -226.5t-105 -160.5t-149 -92t-176.5 -31q-93 0 -174.5 28t-148.5 85t-105.5 153.5t-38.5 223.5zM252 1133q77 124 188 317q26 45 50 64.5t61 19.5 t61 -19.5t50 -64.5q49 -86 96 -165t70 -115l22 -37l-41 -31q-123 112 -256 268h-4q-59 -69 -123 -136t-98 -100l-35 -32zM299 469q0 -430 250 -430q252 0 252 430t-252 430q-250 0 -250 -430z" />
<glyph unicode="&#xf5;" horiz-adv-x="1099" d="M82 459q0 126 39.5 226t106 160.5t148.5 92t173 31.5q93 0 175 -28.5t149 -85.5t106 -153.5t39 -222.5q0 -127 -38.5 -226.5t-105 -160.5t-149 -92t-176.5 -31q-93 0 -174.5 28t-148.5 85t-105.5 153.5t-38.5 223.5zM246 1206q35 128 83.5 187t116.5 59q36 0 78 -17.5 t73.5 -39t68.5 -39t63 -17.5q67 0 111 123l57 -18q-35 -128 -84 -187t-117 -59q-45 0 -98.5 28t-102 56.5t-81.5 28.5q-67 0 -111 -123zM299 469q0 -430 250 -430q252 0 252 430t-252 430q-250 0 -250 -430z" />
<glyph unicode="&#xf6;" horiz-adv-x="1099" d="M82 459q0 126 39.5 226t106 160.5t148.5 92t173 31.5q93 0 175 -28.5t149 -85.5t106 -153.5t39 -222.5q0 -127 -38.5 -226.5t-105 -160.5t-149 -92t-176.5 -31q-93 0 -174.5 28t-148.5 85t-105.5 153.5t-38.5 223.5zM225 1315q0 49 34.5 84t84.5 35t84.5 -35t34.5 -84 t-34.5 -84t-84.5 -35t-84.5 35t-34.5 84zM299 469q0 -430 250 -430q252 0 252 430t-252 430q-250 0 -250 -430zM651 1315q0 49 34.5 84t84.5 35t84.5 -35t34.5 -84t-34.5 -84t-84.5 -35t-84.5 35t-34.5 84z" />
<glyph unicode="&#xf7;" horiz-adv-x="1167" d="M102 477v86h963v-86h-963zM449 145q0 54 39 92.5t96 38.5q54 0 91.5 -38.5t37.5 -92.5q0 -55 -37.5 -93t-91.5 -38q-57 0 -96 38t-39 93zM449 889q0 54 39 92.5t96 38.5q54 0 91.5 -38.5t37.5 -92.5q0 -55 -37.5 -93t-91.5 -38q-57 0 -96 38t-39 93z" />
<glyph unicode="&#xf8;" horiz-adv-x="1087" d="M59 -94l146 190q-129 129 -129 363q0 126 39.5 226t106 160.5t148.5 92t173 31.5q155 0 274 -76l144 188l51 -39l-144 -188q144 -134 144 -375q0 -127 -38.5 -226.5t-105 -160.5t-149 -92t-176.5 -31q-166 0 -287 84l-143 -188zM283 469q0 -148 28 -236l428 560 q-65 106 -196 106q-260 0 -260 -430zM338 162q64 -123 205 -123q134 0 198 108t64 322q0 163 -35 258z" />
<glyph unicode="&#xf9;" horiz-adv-x="1193" d="M20 864v70l357 20v-563v-63.5t1.5 -56t4.5 -52t8.5 -42.5t13.5 -38.5t20 -28.5t28 -23t37.5 -12t48.5 -5q47 0 96 24.5t90 68t67.5 110.5t26.5 143v336q0 21 -2.5 37.5t-9.5 28t-12.5 19.5t-20 13t-23 8t-29 4.5t-32 1.5h-37.5v70l355 20v-876l166 -4v-70l-338 -20 l-7 196h-4q-56 -93 -147 -150t-207 -57q-84 0 -140.5 21t-87 66t-43 102.5t-12.5 142.5v447q0 24 -3.5 41.5t-7.5 30t-16.5 20t-21 12t-32 6t-38 2t-49.5 0.5zM309 1442q0 35 23.5 57.5t56.5 22.5q61 0 115 -78l213 -318l-37 -34l-303 241q-68 57 -68 109z" />
<glyph unicode="&#xfa;" horiz-adv-x="1193" d="M20 864v70l357 20v-563v-63.5t1.5 -56t4.5 -52t8.5 -42.5t13.5 -38.5t20 -28.5t28 -23t37.5 -12t48.5 -5q47 0 96 24.5t90 68t67.5 110.5t26.5 143v336q0 21 -2.5 37.5t-9.5 28t-12.5 19.5t-20 13t-23 8t-29 4.5t-32 1.5h-37.5v70l355 20v-876l166 -4v-70l-338 -20 l-7 196h-4q-56 -93 -147 -150t-207 -57q-84 0 -140.5 21t-87 66t-43 102.5t-12.5 142.5v447q0 24 -3.5 41.5t-7.5 30t-16.5 20t-21 12t-32 6t-38 2t-49.5 0.5zM479 1126l213 318q54 78 115 78q33 0 56.5 -22.5t23.5 -57.5q0 -52 -68 -109l-303 -241z" />
<glyph unicode="&#xfb;" horiz-adv-x="1193" d="M20 864v70l357 20v-563v-63.5t1.5 -56t4.5 -52t8.5 -42.5t13.5 -38.5t20 -28.5t28 -23t37.5 -12t48.5 -5q47 0 96 24.5t90 68t67.5 110.5t26.5 143v336q0 21 -2.5 37.5t-9.5 28t-12.5 19.5t-20 13t-23 8t-29 4.5t-32 1.5h-37.5v70l355 20v-876l166 -4v-70l-338 -20 l-7 196h-4q-56 -93 -147 -150t-207 -57q-84 0 -140.5 21t-87 66t-43 102.5t-12.5 142.5v447q0 24 -3.5 41.5t-7.5 30t-16.5 20t-21 12t-32 6t-38 2t-49.5 0.5zM307 1133q78 124 189 317q26 45 50 64.5t60 19.5q37 0 61 -19.5t50 -64.5q49 -86 96 -165t69 -115l23 -37 l-41 -31q-123 112 -256 268h-4q-59 -69 -123 -136t-99 -100l-34 -32z" />
<glyph unicode="&#xfc;" horiz-adv-x="1193" d="M20 864v70l357 20v-563v-63.5t1.5 -56t4.5 -52t8.5 -42.5t13.5 -38.5t20 -28.5t28 -23t37.5 -12t48.5 -5q47 0 96 24.5t90 68t67.5 110.5t26.5 143v336q0 21 -2.5 37.5t-9.5 28t-12.5 19.5t-20 13t-23 8t-29 4.5t-32 1.5h-37.5v70l355 20v-876l166 -4v-70l-338 -20 l-7 196h-4q-56 -93 -147 -150t-207 -57q-84 0 -140.5 21t-87 66t-43 102.5t-12.5 142.5v447q0 24 -3.5 41.5t-7.5 30t-16.5 20t-21 12t-32 6t-38 2t-49.5 0.5zM276 1315q0 49 35 84t84 35t84 -35t35 -84t-35 -84t-84 -35t-84 35t-35 84zM702 1315q0 49 35 84t84 35t84 -35 t35 -84t-35 -84t-84 -35t-84 35t-35 84z" />
<glyph unicode="&#xfd;" horiz-adv-x="1052" d="M-31 872v70q56 0 123.5 -4t118.5 -4q46 0 120 4t146 4v-70l-153 -10l274 -643h2l180 459q14 37 21.5 59t12.5 45.5t0.5 36t-14.5 24.5t-31.5 17.5t-51.5 8.5t-74 3v70q51 0 114.5 -4t114.5 -4q37 0 97 4t114 4v-70q-28 0 -50 -2t-41 -9t-31.5 -12.5t-26 -20.5t-21 -25 t-19 -35t-18 -40t-20.5 -50l-240 -602q-19 -49 -44.5 -117t-40.5 -109t-37 -93.5t-39.5 -84t-43 -65t-51.5 -51.5t-61 -29.5t-76 -11.5q-104 0 -151 47.5t-47 111.5q0 47 29.5 81t78.5 34q43 0 69.5 -25.5t26.5 -66.5q0 -19 -6 -35.5t-12 -23.5l-6 -7q1 -3 4 -7.5t17 -11.5 t34 -7q53 0 97.5 51.5t84.5 157.5l62 159l-389 889zM479 1126l213 318q54 78 115 78q33 0 56.5 -22.5t23.5 -57.5q0 -52 -68 -109l-303 -241z" />
<glyph unicode="&#xfe;" horiz-adv-x="1126" d="M0 -401l170 10v1642q0 33 -8.5 55t-19.5 33.5t-37 17t-44.5 6.5t-58.5 1v70l348 20v-688h2q55 90 143.5 145.5t204.5 55.5q165 0 258 -129t93 -338q0 -100 -22 -182.5t-60 -137.5t-84 -95.5t-98.5 -62.5t-98 -32t-88.5 -10q-156 0 -246 77h-2v-448l168 -10v-70 q-46 0 -122 4t-138 4q-61 0 -136.5 -4t-123.5 -4v70zM356 145q86 -92 224 -92q270 0 270 414q0 399 -225 399q-97 0 -183 -96.5t-86 -228.5v-396z" />
<glyph unicode="&#xff;" horiz-adv-x="1052" d="M-31 872v70q56 0 123.5 -4t118.5 -4q46 0 120 4t146 4v-70l-153 -10l274 -643h2l180 459q14 37 21.5 59t12.5 45.5t0.5 36t-14.5 24.5t-31.5 17.5t-51.5 8.5t-74 3v70q51 0 114.5 -4t114.5 -4q37 0 97 4t114 4v-70q-28 0 -50 -2t-41 -9t-31.5 -12.5t-26 -20.5t-21 -25 t-19 -35t-18 -40t-20.5 -50l-240 -602q-19 -49 -44.5 -117t-40.5 -109t-37 -93.5t-39.5 -84t-43 -65t-51.5 -51.5t-61 -29.5t-76 -11.5q-104 0 -151 47.5t-47 111.5q0 47 29.5 81t78.5 34q43 0 69.5 -25.5t26.5 -66.5q0 -19 -6 -35.5t-12 -23.5l-6 -7q1 -3 4 -7.5t17 -11.5 t34 -7q53 0 97.5 51.5t84.5 157.5l62 159l-389 889zM246 1315q0 49 35 84t84 35t83.5 -34.5t34.5 -84.5t-34.5 -84.5t-83.5 -34.5t-84 35t-35 84zM672 1315q0 49 35 84t84 35t83.5 -34.5t34.5 -84.5t-34.5 -84.5t-83.5 -34.5t-84 35t-35 84z" />
<glyph unicode="&#x152;" horiz-adv-x="1841" d="M102 643q0 126 35.5 235t97 186t142 132.5t171.5 82t185 26.5q65 0 155.5 -8.5t123.5 -8.5q101 0 340.5 3t302.5 3l20 -348h-69l-17 88q-15 87 -79.5 139t-168.5 52h-233v-523l209 9q34 1 59 14t36 30.5t18 34.5t8 29v12h69v-376h-69q0 7 -1 19t-9 43t-21.5 55t-43.5 44 t-71 21h-184v-567h235q123 0 206.5 71.5t103.5 198.5l6 39h70l-13 -383q-81 0 -336.5 4t-367.5 4q-29 0 -141.5 -7t-194.5 -7q-125 -1 -224.5 34.5t-164 95.5t-107 144.5t-60.5 178t-18 200.5zM340 639q0 -68 6 -130t20 -132.5t42.5 -127t69 -102.5t103.5 -69.5t142 -18.5 l168 11v1159l-139 8q-82 5 -150.5 -23.5t-116.5 -83t-81 -131.5t-48.5 -167.5t-15.5 -192.5z" />
<glyph unicode="&#x153;" horiz-adv-x="1654" d="M76 459q0 126 41 226t109.5 160.5t152 92t174.5 31.5q219 0 340 -150q54 74 140 113t169 39q94 0 164.5 -27t108.5 -65.5t61.5 -91.5t30 -95t6.5 -86q0 -24 -2 -49t-4 -38l-2 -13h-594v-37q0 -41 1 -68.5t6 -76t14.5 -82t29 -73t46 -64t68.5 -41.5t95 -17q52 0 101.5 20 t83 48.5t59.5 57.5t39 49l12 20l59 -37q-5 -10 -15 -26t-44.5 -57.5t-74 -73t-104.5 -57.5t-135 -26q-229 0 -352 154q-49 -71 -133.5 -110.5t-183.5 -39.5q-93 0 -174.5 28t-148.5 85t-105.5 153.5t-38.5 223.5zM293 469q0 -208 63 -319t187 -111q252 0 252 430 q0 216 -58 323t-184 107q-121 0 -190.5 -110.5t-69.5 -319.5zM975 571h389q8 43 8 88q0 242 -178 242q-196 0 -219 -330z" />
<glyph unicode="&#x178;" horiz-adv-x="1308" d="M10 1225v69q58 0 141 -4t134 -4q46 0 143.5 4t169.5 4v-69l-184 -11l311 -561h8q16 34 42 81t75 133t92 163q66 109 41 152t-170 43v69q51 0 132 -4t132 -4q37 0 107.5 4t124.5 4v-69q-106 0 -165 -43t-120 -154q-27 -49 -67 -121t-56.5 -101t-42.5 -77t-34 -66 t-22.5 -51.5t-17.5 -48.5t-9 -41.5t-6.5 -47.5t-0.5 -50v-350l180 -8v-70q-46 0 -150.5 4t-133.5 4t-134 -4t-151 -4v70l180 8v446l-389 694zM373 1565q0 49 34.5 83.5t84.5 34.5t84 -34.5t34 -83.5q0 -50 -34.5 -84.5t-83.5 -34.5q-50 0 -84.5 35t-34.5 84zM799 1565 q0 49 34.5 83.5t84.5 34.5t84 -34.5t34 -83.5q0 -50 -34.5 -84.5t-83.5 -34.5q-50 0 -84.5 35t-34.5 84z" />
<glyph unicode="&#x2c6;" horiz-adv-x="1024" d="M215 1133q77 124 188 317q26 45 50 64.5t61 19.5t61 -19.5t50 -64.5q49 -86 96 -165t69 -115l23 -37l-41 -31q-123 112 -256 268h-4q-59 -69 -123 -136t-99 -100l-34 -32z" />
<glyph unicode="&#x2dc;" horiz-adv-x="1024" d="M186 1206q35 128 84 187t117 59q36 0 78 -17.5t73.5 -39t68.5 -39t63 -17.5q66 0 110 123l58 -18q-35 -128 -84 -187t-117 -59q-36 0 -78 17.5t-73.5 39t-68.5 39t-63 17.5q-66 0 -110 -123z" />
<glyph unicode="&#x2000;" horiz-adv-x="882" />
<glyph unicode="&#x2001;" horiz-adv-x="1765" />
<glyph unicode="&#x2002;" horiz-adv-x="882" />
<glyph unicode="&#x2003;" horiz-adv-x="1765" />
<glyph unicode="&#x2004;" horiz-adv-x="588" />
<glyph unicode="&#x2005;" horiz-adv-x="441" />
<glyph unicode="&#x2006;" horiz-adv-x="294" />
<glyph unicode="&#x2007;" horiz-adv-x="294" />
<glyph unicode="&#x2008;" horiz-adv-x="220" />
<glyph unicode="&#x2009;" horiz-adv-x="353" />
<glyph unicode="&#x200a;" horiz-adv-x="98" />
<glyph unicode="&#x2010;" horiz-adv-x="745" d="M72 461v119h602v-119h-602z" />
<glyph unicode="&#x2011;" horiz-adv-x="745" d="M72 461v119h602v-119h-602z" />
<glyph unicode="&#x2012;" horiz-adv-x="745" d="M72 461v119h602v-119h-602z" />
<glyph unicode="&#x2013;" horiz-adv-x="1089" d="M94 481v103h903v-103h-903z" />
<glyph unicode="&#x2014;" horiz-adv-x="1884" d="M141 469v102h1602v-102h-1602z" />
<glyph unicode="&#x2018;" horiz-adv-x="366" d="M31 1098q0 98 67 194.5t199 165.5l39 -49q-56 -34 -95 -72t-55.5 -71t-23 -56t-6.5 -43l2 -22q65 0 109 -28t44 -87q0 -50 -35.5 -82.5t-93.5 -32.5q-68 0 -109.5 50t-41.5 133z" />
<glyph unicode="&#x2019;" horiz-adv-x="366" d="M31 965q56 34 95 71.5t55.5 70.5t23 56t6.5 43l-2 23q-66 0 -110 27.5t-44 86.5q0 50 35.5 82.5t93.5 32.5q68 0 110 -49.5t42 -132.5q0 -98 -67 -195t-199 -166z" />
<glyph unicode="&#x201a;" horiz-adv-x="555" d="M117 -252q56 34 95 72t55.5 71t23 56t6.5 43l-2 22q-65 0 -109.5 28t-44.5 87q0 50 35.5 82.5t93.5 32.5q68 0 110 -50t42 -133q0 -98 -67 -194.5t-199 -165.5z" />
<glyph unicode="&#x201c;" horiz-adv-x="735" d="M31 1098q0 98 67 194.5t199 165.5l39 -49q-56 -34 -95 -72t-55.5 -71t-23 -56t-6.5 -43l2 -22q65 0 109 -28t44 -87q0 -50 -35.5 -82.5t-93.5 -32.5q-68 0 -109.5 50t-41.5 133zM399 1098q0 98 67.5 194.5t199.5 165.5l39 -49q-56 -34 -95 -72t-56 -71t-23.5 -56 t-6.5 -43l2 -22q65 0 109.5 -28t44.5 -87q0 -50 -35.5 -82.5t-93.5 -32.5q-68 0 -110 50t-42 133z" />
<glyph unicode="&#x201d;" horiz-adv-x="735" d="M31 965q56 34 95 71.5t55.5 70.5t23 56t6.5 43l-2 23q-66 0 -110 27.5t-44 86.5q0 50 35.5 82.5t93.5 32.5q68 0 110 -49.5t42 -132.5q0 -98 -67 -195t-199 -166zM399 965q56 34 95 71.5t56 70.5t23.5 56t6.5 43l-2 23q-66 0 -110 27.5t-44 86.5q0 50 35.5 82.5 t93.5 32.5q68 0 110 -49.5t42 -132.5q0 -98 -67.5 -195t-199.5 -166z" />
<glyph unicode="&#x201e;" horiz-adv-x="923" d="M117 -252q56 34 95 72t55.5 71t23 56t6.5 43l-2 22q-65 0 -109.5 28t-44.5 87q0 50 35.5 82.5t93.5 32.5q68 0 110 -50t42 -133q0 -98 -67 -194.5t-199 -165.5zM485 -252q56 34 95 72t56 71t23.5 56t6.5 43l-2 22q-65 0 -109.5 28t-44.5 87q0 50 35.5 82.5t93.5 32.5 q68 0 110 -50t42 -133q0 -98 -67.5 -194.5t-199.5 -165.5z" />
<glyph unicode="&#x2022;" horiz-adv-x="901" d="M174 524q0 116 81 196.5t196 80.5t195.5 -80.5t80.5 -196.5t-80.5 -196t-195.5 -80q-116 0 -196.5 80.5t-80.5 195.5z" />
<glyph unicode="&#x2026;" horiz-adv-x="1699" d="M154 109q0 51 35.5 89t86.5 38q53 0 90 -37.5t37 -89.5q0 -51 -36.5 -88t-90.5 -37q-51 0 -86.5 37t-35.5 88zM690 109q0 51 37.5 89t89.5 38q51 0 88 -38t37 -89t-37 -88t-88 -37q-52 0 -89.5 37t-37.5 88zM1231 109q0 52 36.5 89.5t88.5 37.5t88.5 -37.5t36.5 -89.5 q0 -51 -36.5 -88t-88.5 -37t-88.5 37t-36.5 88z" />
<glyph unicode="&#x202f;" horiz-adv-x="353" />
<glyph unicode="&#x2039;" horiz-adv-x="696" d="M123 471q0 59 63 107q83 64 172.5 145t137.5 131l49 49l49 -41q-149 -217 -311 -389v-4q72 -76 150 -173.5t119 -156.5l42 -59l-49 -41q-19 21 -53 55t-128.5 120.5t-177.5 150.5q-34 26 -48.5 49.5t-14.5 56.5z" />
<glyph unicode="&#x203a;" horiz-adv-x="696" d="M102 80q150 217 312 389v4q-72 76 -150 173.5t-120 156.5l-42 59l50 41q19 -20 53 -54.5t128 -120.5t177 -150q63 -48 63 -107q0 -33 -14.5 -56.5t-48.5 -49.5q-83 -64 -172.5 -145.5t-137.5 -131.5l-48 -49z" />
<glyph unicode="&#x205f;" horiz-adv-x="441" />
<glyph unicode="&#x20ac;" horiz-adv-x="1304" d="M72 496v73h137v45q0 35 4 97h-141v73h149q20 142 75.5 248.5t137.5 170.5t180 95t211 31q181 0 278 -78.5t97 -183.5q0 -67 -40 -108t-95 -41q-47 0 -80 31t-33 77q0 25 6.5 45.5t15.5 32t18 19.5t16 11l6 3q-6 21 -18.5 39t-36.5 38t-66 31.5t-98 11.5q-87 0 -155 -36 t-112.5 -100.5t-69.5 -149t-32 -187.5h526v-73h-528v-6q0 -71 6 -136h522v-73h-514q33 -197 131.5 -300.5t261.5 -103.5q55 0 104 15t84 38.5t64.5 52.5t48.5 58t32 52.5t18 38.5l6 15l61 -30q-2 -8 -6.5 -21.5t-23 -52.5t-41 -75t-63.5 -79.5t-88.5 -74.5t-117.5 -52.5 t-149 -21.5q-124 0 -222.5 39.5t-165 112t-105.5 170t-52 219.5h-143z" />
<glyph unicode="&#x2122;" horiz-adv-x="1277" d="M72 1112l10 178q35 0 111 -1t110 -1t109 1t110 1l8 -178h-45l-8 33q-14 52 -32.5 75t-59.5 23h-18v-348l79 -4v-47q-26 0 -74.5 2t-70.5 2t-69.5 -2t-73.5 -2v47l80 4v348h-19q-40 0 -60.5 -23.5t-33.5 -74.5l-8 -33h-45zM555 844v47q57 0 71.5 13t14.5 75v262l-72 4v43 h236l82 -258h8l90 260h221v-45l-71 -4v-350h71v-47q-20 0 -70.5 2t-68.5 2q-12 0 -50.5 -2t-58.5 -2v49h64v334h-6l-131 -379h-41l-135 379h-7v-248q0 -64 10.5 -76t63.5 -12v-47q-24 0 -57.5 2t-48.5 2q-16 0 -53 -2t-62 -2z" />
<glyph unicode="&#x25fc;" horiz-adv-x="942" d="M0 0v942h942v-942h-942z" />
</font>
</defs>
</svg>
