<?xml version="1.0" standalone="no"?>
<!DOCTYPE svg PUBLIC "-//W3C//DTD SVG 1.1//EN" "http://www.w3.org/Graphics/SVG/1.1/DTD/svg11.dtd" >
<svg xmlns="http://www.w3.org/2000/svg" xmlns:xlink="http://www.w3.org/1999/xlink" version="1.1">
<metadata></metadata>
<defs>
<font id="ingeborgbold" horiz-adv-x="1030" >
<font-face units-per-em="2048" ascent="1536" descent="-512" />
<missing-glyph horiz-adv-x="493" />
<glyph unicode="&#xfb01;" horiz-adv-x="1306" d="M53 854v80h162v59q0 551 537 551q169 0 278 -71t109 -187q0 -80 -45 -127t-123 -47q-72 0 -113 38.5t-41 100.5q0 27 7.5 50.5t18 37.5t21 24.5t18.5 14.5l7 4q-1 3 -3.5 9t-13.5 21t-27 26t-47 20.5t-69 9.5q-131 0 -194 -106t-56 -328l4 -100h248l410 20v-878l145 -10 v-70q-46 0 -132 4t-148 4t-144.5 -4t-130.5 -4v70l139 10v665q0 70 -26.5 91.5t-112.5 21.5h-246v-778l148 -10v-70q-46 0 -132.5 4t-148.5 4t-144 -4t-130 -4v70l137 10v778h-162z" />
<glyph unicode="&#xfb02;" horiz-adv-x="1341" d="M53 854v80h162v106q0 112 26 199t68.5 141t102.5 89t122.5 49t133.5 14q77 0 149.5 -23t106.5 -46l34 -23l195 14v-1378l139 -10v-70q-46 0 -124.5 4t-141.5 4q-61 0 -148 -4t-135 -4v70l142 10v778h-400v-778l140 -10v-70q-46 0 -129 4t-146 4q-61 0 -143.5 -4 t-130.5 -4v70l139 10v778h-162zM479 1034l4 -100h402v248q0 72 -18.5 131.5t-66.5 102t-120 42.5q-113 0 -160.5 -96t-40.5 -328z" />
<glyph unicode="&#xfb03;" horiz-adv-x="1955" d="M53 854v80h162v65q0 136 39.5 238t110 162t161 89.5t199.5 29.5q178 0 295 -93q133 119 383 119q168 0 277.5 -71.5t109.5 -186.5q0 -80 -45 -127t-123 -47q-72 0 -114 39t-42 100q0 27 7.5 50.5t18 37.5t21 24.5t17.5 14.5l8 4l-3 9t-13 21t-27 26t-46.5 20.5t-68.5 9.5 q-133 0 -196 -106t-54 -328l5 -100h247l408 20v-878l147 -10v-70q-46 0 -132 4t-148 4t-144.5 -4t-130.5 -4v70l140 10v665q0 70 -26.5 91.5t-113.5 21.5h-245v-778l147 -10v-70q-46 0 -133.5 4t-149.5 4t-144 -4t-130 -4v70l139 10v778h-381v-778l138 -10v-70q-46 0 -129 4 t-146 4q-61 0 -142.5 -4t-129.5 -4v70l139 10v778h-162zM483 934h383v59q0 171 54 295q-24 65 -71.5 109.5t-121.5 44.5q-263 0 -244 -455v-53z" />
<glyph unicode="&#xfb04;" horiz-adv-x="1992" d="M53 854v80h162v65q0 136 39.5 238t110 162t161 89.5t199.5 29.5q168 0 287 -84q114 98 307 98q49 0 97 -9.5t81.5 -23t60 -27t39.5 -22.5l13 -10l194 14v-1378l140 -10v-70q-46 0 -125 4t-142 4q-61 0 -147.5 -4t-134.5 -4v70l141 10v778h-399v-778l141 -10v-70 q-46 0 -130 4t-147 4q-61 0 -143.5 -4t-130.5 -4v70l139 10v778h-381v-778l138 -10v-70q-46 0 -129 4t-146 4q-61 0 -142.5 -4t-129.5 -4v70l139 10v778h-162zM483 934h383v106q0 156 49 263q-63 139 -188 139q-263 0 -244 -455v-53zM1130 1034l5 -100h401v248 q0 72 -18.5 131.5t-66.5 102t-120 42.5q-113 0 -160.5 -96t-40.5 -328z" />
<glyph horiz-adv-x="0" />
<glyph horiz-adv-x="682" />
<glyph unicode=" "  horiz-adv-x="493" />
<glyph unicode="&#x09;" horiz-adv-x="493" />
<glyph unicode="&#xa0;" horiz-adv-x="493" />
<glyph unicode="!" horiz-adv-x="684" d="M154 1133q0 92 50.5 157.5t137.5 65.5t137.5 -65.5t50.5 -157.5q0 -73 -27.5 -162t-66.5 -222t-59 -284h-70q-21 151 -60 284.5t-66 222t-27 161.5zM166 133q0 71 51 117.5t125 46.5q73 0 121.5 -46.5t48.5 -117.5t-48.5 -116.5t-121.5 -45.5q-75 0 -125.5 45.5 t-50.5 116.5z" />
<glyph unicode="&#x22;" horiz-adv-x="778" d="M45 1352q0 65 39.5 105t105.5 40t105 -40t39 -105q0 -43 -43 -160l-74 -283h-57l-72 283q-19 54 -25.5 73.5t-12 44t-5.5 42.5zM446 1352q0 65 39 105t105 40t105.5 -40t39.5 -105q0 -38 -45 -160l-74 -283h-57l-72 283q-41 119 -41 160z" />
<glyph unicode="#" horiz-adv-x="1173" d="M84 305l29 182h247l33 191h-246l31 182h248l57 326h88l-57 -326h246l57 326h88l-57 -326h242l-31 -182h-244l-33 -191h242l-29 -182h-245l-60 -334h-88l60 334h-246l-60 -334h-88l60 334h-244zM449 487h245l33 191h-246z" />
<glyph unicode="$" horiz-adv-x="1220" d="M88 250q0 78 48.5 126t119.5 48q67 0 108.5 -39t41.5 -102q0 -27 -8.5 -49.5t-20.5 -35t-24 -21.5t-21 -12l-8 -3q1 -14 14.5 -33.5t40.5 -42t77.5 -38.5t114.5 -17v524l-14 2q-211 39 -323.5 124.5t-112.5 236.5q0 79 25 145t67.5 111.5t100.5 77.5t122 48.5t135 20.5 v219h74v-217q204 -4 314 -73t110 -183q0 -70 -44 -115t-112 -45q-59 0 -97 37t-38 94q0 25 7 45t17.5 31.5t21 19.5t17.5 10l7 3q-1 13 -10 27t-29.5 31.5t-63 30.5t-100.5 17v-471l33 -6q101 -19 179 -49t141 -75t96.5 -111t33.5 -150q0 -87 -26 -157t-70.5 -117.5 t-107 -81t-131.5 -51t-148 -23.5v-209h-74v207h-8q-235 0 -355 82t-120 209zM332 1038q0 -86 54.5 -143t184.5 -94v450q-112 -9 -175.5 -67.5t-63.5 -145.5zM645 35q116 13 176 79.5t60 166.5q0 110 -55.5 167t-180.5 89v-502z" />
<glyph unicode="%" horiz-adv-x="1466" d="M82 991q0 82 28.5 147t75.5 104.5t103.5 60t116.5 20.5q63 0 118.5 -18t102.5 -54.5t74.5 -100t27.5 -146.5t-27.5 -148t-74 -104.5t-103 -59.5t-118.5 -20q-63 0 -118.5 17.5t-103 54t-75 100t-27.5 147.5zM170 0l1071 1362l64 -49l-1072 -1364zM283 997 q0 -128 32.5 -192t90.5 -64q118 0 118 256t-118 256q-58 0 -90.5 -64t-32.5 -192zM739 299q0 82 28.5 147t75.5 104.5t103.5 60t116.5 20.5q63 0 118.5 -18t102.5 -54.5t74.5 -100.5t27.5 -147t-27.5 -148t-74 -104t-103 -59t-118.5 -20q-63 0 -118.5 17.5t-103 54t-75 100 t-27.5 147.5zM940 305q0 -128 32.5 -192t90.5 -64q119 0 119 256t-119 256q-58 0 -90.5 -64t-32.5 -192z" />
<glyph unicode="&#x26;" horiz-adv-x="1597" d="M41 311q0 76 30 144.5t72.5 115t100.5 86.5t101 61t87 38q-67 146 -67 262q0 131 97.5 222t258.5 91q124 0 198 -64t74 -177q0 -29 -7.5 -57.5t-21.5 -53t-30 -46t-38 -41.5t-40 -34.5t-41.5 -29.5t-36.5 -23t-31 -18t-20 -11q73 -115 262 -358h2q140 179 179.5 237 t39.5 95q0 41 -42 62.5t-117 21.5v69q51 0 138 -4t138 -4q37 0 116.5 4t133.5 4v-69q-106 0 -176 -44t-162 -167l-197 -269q91 -108 151 -150t124 -42q127 0 190 182l66 -16q-33 -169 -125 -275t-221 -106q-100 0 -184 46.5t-179 151.5q-98 -101 -196.5 -149.5t-221.5 -48.5 q-53 0 -105.5 10t-107.5 36t-97 65.5t-68.5 105t-26.5 147.5zM303 391q11 -102 77.5 -183.5t158.5 -96.5q76 -15 143 12q66 27 127 86v2q-74 88 -195 248q-96 131 -149 231h-2q-92 -47 -135 -133q-33 -72 -25 -166zM616 1092q0 -122 76 -258h2q197 115 197 253 q0 69 -35 117.5t-100 48.5q-63 0 -101.5 -44t-38.5 -117z" />
<glyph unicode="'" horiz-adv-x="380" d="M45 1352q0 65 39.5 105t105.5 40t105 -40t39 -105q0 -43 -43 -160l-72 -283h-57l-72 283q-45 122 -45 160z" />
<glyph unicode="(" horiz-adv-x="761" d="M117 567q0 595 510 953l57 -56q-163 -191 -252.5 -402t-89.5 -480q0 -149 24.5 -277.5t73.5 -236.5t105 -193.5t135 -179.5l-53 -60q-510 338 -510 932z" />
<glyph unicode=")" horiz-adv-x="761" d="M78 -309q163 191 252.5 402t89.5 480q0 149 -24.5 277.5t-73.5 236.5t-105 193.5t-135 179.5l53 60q510 -338 510 -932q0 -595 -510 -953z" />
<glyph unicode="*" horiz-adv-x="1024" d="M111 1083q0 36 25 56t59 20q36 0 77 -20l217 -92l-129 213q-28 44 -28 77q0 31 20.5 54.5t61.5 23.5q75 0 86 -108l24 -246l107 221q32 76 100 76q31 0 51.5 -19t20.5 -53q0 -51 -53 -92l-197 -158l242 13q58 5 94.5 -13.5t36.5 -66.5q0 -33 -20.5 -55.5t-61.5 -22.5 q-47 0 -96 27l-201 81l131 -215q27 -46 27 -82q0 -27 -19.5 -50t-58.5 -23q-37 0 -61.5 29t-28.5 85l-25 242l-115 -225q-38 -74 -98 -74q-32 0 -53 21t-21 55q0 49 54 90l204 158l-250 -13q-59 -4 -90.5 21.5t-31.5 64.5z" />
<glyph unicode="+" horiz-adv-x="1187" d="M113 471v98h430v432h102v-432h430v-98h-430v-432h-102v432h-430z" />
<glyph unicode="," horiz-adv-x="614" d="M109 -299q103 55 156.5 125t53.5 139q0 21 -2 31q-46 0 -87 15t-72 53t-31 94q0 63 49.5 107t126.5 44q89 0 141 -64t52 -163q0 -135 -92.5 -246.5t-262.5 -187.5z" />
<glyph unicode="-" horiz-adv-x="765" d="M82 446v148h602v-148h-602z" />
<glyph unicode="." horiz-adv-x="614" d="M133 143q0 75 50.5 123.5t125.5 48.5q74 0 123 -48.5t49 -123.5q0 -74 -49 -122t-123 -48q-76 0 -126 48t-50 122z" />
<glyph unicode="/" horiz-adv-x="864" d="M68 -406l639 1948l90 -29l-639 -1949z" />
<glyph unicode="0" horiz-adv-x="1261" d="M88 633q0 175 46 311.5t123.5 217.5t172.5 122t201 41q86 0 163.5 -23t147 -74.5t120 -128t80 -191t29.5 -255.5q0 -142 -29 -259t-79.5 -197t-119.5 -135t-147 -80t-165 -25q-86 0 -163.5 23t-148 75t-121 129t-80.5 192t-30 257zM397 643q0 -312 52.5 -464t181.5 -152 q66 0 112 42.5t72 126t37.5 192t11.5 255.5t-11.5 255t-37.5 190.5t-72 124.5t-112 42t-112 -42t-72.5 -124.5t-38 -190.5t-11.5 -255z" />
<glyph unicode="1" horiz-adv-x="868" d="M25 1157l18 68q60 -15 131.5 -18.5t143.5 4.5t134.5 36t96.5 72l76 -12q-4 -424 -4 -1231l163 -10v-70q-48 0 -143 4t-160 4t-192 -4t-176 -4v70l227 10l4 1030q-24 -1 -62.5 -0.5t-124.5 13t-132 38.5z" />
<glyph unicode="2" horiz-adv-x="1103" d="M94 -18v79q0 96 34 180.5t88 147.5t119 121t130.5 113t119.5 111.5t88 128t34 151.5q0 123 -56.5 182t-148.5 59q-87 0 -139 -48t-52 -111q5 -1 13 -2.5t29 -11t37 -22.5t29 -39.5t13 -59.5q0 -61 -42 -101.5t-105 -40.5q-76 0 -124 49.5t-48 132.5q0 146 121.5 237 t316.5 91q204 0 327 -88t123 -254q0 -89 -40 -163t-105.5 -125.5t-145 -96.5t-164 -87.5t-157.5 -87t-129 -106t-76 -133.5l9 -2q87 99 253 99q83 0 202 -21.5t161 -21.5q86 0 116 33t25 114l70 4q25 -220 -57.5 -325t-243.5 -105q-81 0 -152.5 23t-113 50t-88 50t-84.5 23 q-47 0 -79 -31t-36 -96h-72z" />
<glyph unicode="3" horiz-adv-x="1124" d="M82 229q0 82 53.5 134.5t128.5 52.5q61 0 101.5 -38.5t40.5 -98.5q0 -33 -12 -59.5t-29 -40.5t-33.5 -23.5t-28.5 -11.5l-12 -3q0 -44 45.5 -78t128.5 -34q68 0 122.5 30t86.5 78.5t48.5 104t16.5 112.5q0 127 -60 191.5t-149 64.5q-33 0 -65 -8t-48 -16l-16 -8l-24 61 q170 72 250 166.5t80 234.5q0 112 -53.5 163.5t-135.5 51.5q-86 0 -138 -47t-52 -112q5 -1 13 -2.5t28 -11t35.5 -22.5t28.5 -39.5t13 -59.5q0 -62 -42 -102t-103 -40q-78 0 -125 48.5t-47 133.5q0 145 120.5 236.5t313.5 91.5q85 0 157 -16.5t131.5 -51t93.5 -94.5t34 -141 q0 -57 -25.5 -110t-70.5 -96t-97 -76.5t-112 -59.5v-2q100 2 181.5 -29.5t134 -104t52.5 -175.5q0 -105 -45.5 -187t-122.5 -131t-172.5 -74.5t-203.5 -25.5q-416 0 -416 274z" />
<glyph unicode="4" horiz-adv-x="1126" d="M47 389q110 149 187.5 284.5t109 215t65 169.5t56.5 136q29 56 78.5 94.5t109.5 38.5q62 0 98.5 -38.5t36.5 -96.5q0 -82 -49 -143q-39 -54 -135 -153.5t-227 -237.5t-234 -261l2 -2h459v242q140 68 215 180h66v-422h166v-69h-166v-250l143 -10v-70q-48 0 -133.5 4 t-149.5 4q-62 0 -166.5 -4t-168.5 -4v70l194 10v250h-526z" />
<glyph unicode="5" horiz-adv-x="1101" d="M72 217q0 81 52.5 132.5t127.5 51.5q60 0 100.5 -38.5t40.5 -98.5q0 -32 -11.5 -57.5t-28.5 -39t-34 -22.5t-29 -11l-11 -3q0 -40 47 -73t131 -33q63 0 112 21.5t78.5 55t49 79.5t27 91t7.5 93q0 143 -62.5 217.5t-164.5 74.5q-57 0 -118 -23.5t-94 -47.5l-32 -23l-72 23 v712q18 -1 96 -10.5t169 -17.5t163 -8q53 0 85 1.5t78.5 8.5t79 24t52.5 45l64 -14q-45 -180 -152.5 -261t-294.5 -81q-56 0 -123 11.5t-106 22.5l-39 11v-383l2 -2q146 117 356 117q181 0 292.5 -99t111.5 -280q0 -102 -43.5 -185.5t-118 -136.5t-171.5 -81.5t-206 -28.5 q-84 0 -152.5 12.5t-129.5 41t-95 82.5t-34 130z" />
<glyph unicode="6" horiz-adv-x="1173" d="M98 545q0 375 157 581.5t431 206.5q61 0 119.5 -15t111 -45t85 -84t32.5 -124q0 -68 -48.5 -118t-121.5 -50q-63 0 -104 40t-41 101q0 25 8 46.5t19.5 35t23 23.5t19.5 14l8 4q-8 39 -36 69t-85 30q-153 0 -215.5 -151.5t-73.5 -485.5h2q95 127 295 127q82 0 153.5 -23.5 t127.5 -68.5t88 -118.5t32 -166.5q0 -190 -134 -303t-355 -113q-114 0 -201.5 32t-143 85.5t-90.5 130.5t-49 159.5t-14 180.5zM383 371q0 -157 62 -249.5t151 -92.5q54 0 94.5 28t63 74.5t33 98.5t10.5 108q0 82 -18 148t-63.5 111.5t-113.5 45.5q-31 0 -64.5 -12 t-68.5 -39t-59 -80t-27 -125v-16z" />
<glyph unicode="7" horiz-adv-x="985" d="M45 866l27 449h69l-4 -113l4 -2q33 53 101.5 93t160.5 40q68 0 129 -24t97.5 -52.5t79.5 -52.5t79 -24q90 0 111 116h70l-6 -47q-10 -92 -43.5 -177.5t-78.5 -154.5t-90.5 -135t-87 -146t-61.5 -161q-15 -83 -17 -203.5t-3 -138.5q-10 -87 -56 -127.5t-118 -40.5 q-76 0 -123 53.5t-47 141.5q0 132 86 262q61 96 145 193.5t148.5 160.5t126.5 141.5t92 149.5l-7 4q-45 -26 -129.5 -46.5t-181.5 -20.5q-76 0 -158 17t-112 17q-61 0 -89.5 -29t-37.5 -94l-6 -49h-70z" />
<glyph unicode="8" horiz-adv-x="1132" d="M78 291q0 59 19.5 112t47.5 88.5t66 66.5t66 47.5t57 29.5v2q-97 56 -150 131.5t-53 194.5q0 72 24.5 132.5t67 103t100.5 72.5t125.5 44t141.5 14q175 0 288 -80.5t113 -214.5q0 -187 -200 -303v-2q59 -30 101 -60.5t82 -74.5t60.5 -103t20.5 -131q0 -134 -69.5 -227.5 t-184.5 -136.5t-266 -43q-125 0 -227 36.5t-166 115t-64 186.5zM264 315q0 -125 72.5 -206.5t214.5 -81.5q107 0 181.5 59t74.5 162q0 53 -18 96t-43 71.5t-70.5 56t-81 43t-94.5 40.5t-92 41q-144 -103 -144 -281zM360 1071q0 -31 9 -59t21.5 -49.5t36.5 -43t44.5 -35.5 t55.5 -32.5t59 -29t65.5 -29t65.5 -29.5q18 14 35 32.5t38 50t33.5 76.5t12.5 97q0 114 -63.5 177t-184.5 63q-95 0 -161.5 -52.5t-66.5 -136.5z" />
<glyph unicode="9" horiz-adv-x="1165" d="M92 928q0 80 26 147.5t71 114t106 79t130 47.5t144 15q241 0 368.5 -152t127.5 -466q0 -363 -143 -559.5t-433 -196.5q-176 0 -280.5 68.5t-104.5 203.5q0 73 49.5 121.5t125.5 48.5q61 0 102 -38t41 -97q0 -28 -9 -52t-21.5 -38t-25 -23.5t-21.5 -13.5l-9 -4 q0 -33 41 -66.5t123 -33.5q66 0 116.5 38t80.5 97.5t49 143.5t25.5 163.5t6.5 169.5v41h-2q-85 -121 -289 -121q-186 0 -290.5 95.5t-104.5 267.5zM377 969q0 -305 194 -305q88 0 147.5 63.5t49.5 185.5q-3 42 -8 77t-14.5 77.5t-24 74.5t-35 60t-50.5 43t-67 15 q-56 0 -95.5 -27t-59.5 -72.5t-28.5 -92.5t-8.5 -99z" />
<glyph unicode=":" horiz-adv-x="638" d="M147 133q0 71 50.5 117.5t124.5 46.5q73 0 122.5 -46.5t49.5 -117.5t-49.5 -116.5t-122.5 -45.5q-75 0 -125 45.5t-50 116.5zM147 774q0 71 50.5 117.5t124.5 46.5q73 0 122.5 -46.5t49.5 -117.5t-49.5 -116.5t-122.5 -45.5q-75 0 -125 45.5t-50 116.5z" />
<glyph unicode=";" horiz-adv-x="681" d="M147 -311q103 56 157 125.5t54 138.5q0 19 -2 31q-75 0 -132.5 39.5t-57.5 121.5q0 63 49.5 107.5t124.5 44.5q90 0 142.5 -64t52.5 -163q0 -135 -93 -247t-262 -190zM168 774q0 72 50 118t126 46q71 0 120.5 -46.5t49.5 -117.5t-49 -116.5t-121 -45.5q-76 0 -126 45.5 t-50 116.5z" />
<glyph unicode="&#x3c;" horiz-adv-x="1189" d="M152 475v107l862 399v-111l-748 -342l748 -342v-110z" />
<glyph unicode="=" horiz-adv-x="1187" d="M113 297v98h962v-98h-962zM113 645v98h962v-98h-962z" />
<glyph unicode="&#x3e;" horiz-adv-x="1189" d="M176 76v110l748 342l-748 342v111l862 -399v-107z" />
<glyph unicode="?" horiz-adv-x="954" d="M59 1094q0 110 102.5 189t289.5 79q66 0 126 -9t120.5 -33t104.5 -60.5t71.5 -96.5t27.5 -137q0 -72 -28 -133t-71.5 -102t-104.5 -74t-118.5 -51.5t-121.5 -32.5l-13 -180h-73l-13 233q105 56 175.5 150t70.5 217q0 119 -47 178t-127 59q-87 0 -127.5 -34.5t-40.5 -71.5 q4 -1 10 -3t21.5 -11.5t27.5 -22t21.5 -36.5t9.5 -54q0 -57 -38.5 -94t-98.5 -37q-67 0 -111.5 46.5t-44.5 121.5zM240 133q0 71 51 117.5t125 46.5q73 0 121.5 -46.5t48.5 -117.5t-48.5 -116.5t-121.5 -45.5q-75 0 -125.5 45.5t-50.5 116.5z" />
<glyph unicode="@" horiz-adv-x="2058" d="M160 385q0 154 43.5 300t129.5 271t204 219t276.5 147.5t337.5 53.5q168 0 302 -49.5t220 -138t132 -207t46 -258.5q0 -118 -39 -236.5t-103 -211t-154.5 -150t-186.5 -57.5q-81 0 -145 35.5t-78 107.5h-4q-95 -143 -262 -143q-115 0 -176.5 80.5t-61.5 211.5 q0 135 59 261.5t158 205t209 78.5q133 0 195 -98h2l20 88q58 -16 117 -16q26 0 54 4t43 8l15 4q-17 -55 -42 -140t-67 -257.5t-42 -237.5q0 -94 80 -94q72 0 148.5 80.5t127.5 210t51 258.5q0 257 -157 410t-449 153q-158 0 -299 -64t-245 -176.5t-165 -278t-61 -358.5 q0 -176 53 -314.5t146.5 -225t215.5 -131.5t265 -45q161 0 299 47.5t243.5 134t184 200.5t133.5 255l66 -21q-41 -119 -100.5 -224t-146 -199.5t-190 -161.5t-239 -106.5t-287.5 -39.5q-143 0 -273 33t-240 101t-191 164t-126.5 228.5t-45.5 288.5zM874 348q0 -166 97 -166 q63 0 118 77.5t93 221.5l59 234q-10 38 -37 66t-78 28q-68 0 -127.5 -74.5t-92 -180.5t-32.5 -206z" />
<glyph unicode="A" horiz-adv-x="1411" d="M-6 -4v70q50 0 81 6.5t65 30t62.5 72t59.5 128.5l383 1004h164l448 -1231l160 -10v-70q-60 0 -159.5 4t-137.5 4q-52 0 -175 -4t-195 -4v70l198 10l-133 377h-405l-62 -162q-24 -61 -24 -105q0 -43 23 -68q47 -52 188 -52v-70h-50q-33 0 -121.5 4t-132.5 4q-30 0 -92 -4 t-102 -4h-43zM438 528h350l-167 471h-5z" />
<glyph unicode="B" horiz-adv-x="1390" d="M86 -4v70l164 4v1151l-164 4v69q45 0 158.5 -2t152.5 -2q29 0 146.5 2t206.5 2q211 0 326.5 -68t115.5 -210q0 -121 -58.5 -194.5t-195.5 -112.5v-4q173 -24 260.5 -106t87.5 -245q0 -174 -129.5 -266t-355.5 -92q-87 0 -231 2t-173 2q-39 0 -152.5 -2t-158.5 -2zM547 66 h184q242 0 242 296q0 160 -70 230t-205 70h-151v-596zM547 731h151q203 0 203 270q0 224 -221 224h-133v-494z" />
<glyph unicode="C" horiz-adv-x="1280" d="M98 631q0 153 39.5 275t103 198.5t150.5 127t176 71t185 20.5q73 0 132 -14.5t93.5 -28.5t48.5 -14q19 0 34.5 7.5t21.5 14.5l5 8h74q0 -44 -2 -108t-2 -105q0 -67 2 -140.5t2 -111.5h-78q-10 49 -23 95t-40.5 108t-61 106.5t-86 76.5t-114.5 32q-111 0 -189 -81.5 t-112.5 -206.5t-34.5 -279q0 -129 20.5 -232.5t55.5 -172.5t83.5 -115.5t102.5 -67t115 -20.5q51 0 98.5 11.5t81.5 30t63.5 41t48.5 45.5t32.5 41.5t19.5 30.5l6 11l63 -35q-2 -6 -7 -16.5t-23.5 -41.5t-42 -58.5t-65 -61.5t-90 -58.5t-118.5 -41.5t-149 -17 q-136 0 -247 39.5t-195.5 119.5t-130.5 211.5t-46 305.5z" />
<glyph unicode="D" horiz-adv-x="1499" d="M86 -4v70l164 6v1147l-164 6v69q46 0 154 -2t145 -2q35 0 160.5 1t177.5 1q318 0 496 -152t178 -464q0 -151 -37.5 -274t-111.5 -214.5t-192.5 -141.5t-273.5 -50q-82 0 -225 2t-172 2q-34 0 -143 -2t-156 -2zM547 66h174q76 0 136 24.5t98.5 70.5t64.5 101.5t39.5 130 t18.5 142t5 149.5q0 99 -11 178t-38.5 148t-71.5 115.5t-111.5 73t-156.5 26.5h-147v-1159z" />
<glyph unicode="E" horiz-adv-x="1302" d="M86 -4v70l164 8v1143l-164 8v69q30 0 181.5 -4t273.5 -4q101 0 301.5 4t263.5 4l20 -420h-73l-15 72q-5 28 -19.5 61.5t-41.5 71t-60.5 68t-82 50.5t-101.5 20h-186v-512l147 6q40 3 72 22t48.5 44.5t25 47t8.5 33.5h74v-430h-74q0 14 -8 43t-25.5 66.5t-53.5 66 t-83 31.5h-131v-561h176q79 0 148.5 33.5t115 85.5t73.5 108.5t36 108.5l6 36h74l-13 -450q-81 0 -264 4t-295 4q-151 0 -321.5 -4t-196.5 -4z" />
<glyph unicode="F" horiz-adv-x="1208" d="M86 -4v70l164 8v1143l-164 8v69q30 0 183.5 -4t275.5 -4q101 0 297.5 4t259.5 4l20 -420h-73l-13 72q-18 93 -102 180.5t-205 90.5h-182v-512l147 6q40 3 72.5 22.5t49.5 44.5t25.5 46.5t8.5 33.5h74v-430h-74q0 14 -8.5 43t-26 66.5t-54 66t-83.5 31.5h-131v-561l211 -8 v-70q-35 0 -165.5 4t-203.5 4q-41 0 -151.5 -4t-151.5 -4z" />
<glyph unicode="G" horiz-adv-x="1425" d="M98 621q0 156 43.5 280.5t113 202t163.5 129t188.5 72t194.5 20.5q74 0 139 -14.5t105.5 -29.5t54.5 -15q18 0 33 7.5t21 14.5l5 8h74q0 -37 -2 -112t-2 -111q0 -54 2 -125t2 -106h-76q-9 41 -22 81.5t-44.5 103t-70.5 108t-103.5 79t-140.5 33.5q-154 0 -253 -168.5 t-99 -423.5q0 -107 10 -195t35.5 -167.5t66 -133.5t104.5 -86t148 -32q88 0 183 31v262q0 59 -6 90.5t-26.5 51t-51.5 25t-90 5.5v69q42 0 154.5 -4t158.5 -4q49 0 130 4t108 4v-69l-103 -8v-492l-61 -22l-78 61q-172 -90 -371 -90q-314 0 -475.5 177t-161.5 489z" />
<glyph unicode="H" horiz-adv-x="1562" d="M86 -4v70l160 8v1143l-160 8v69q46 0 162 -4t145 -4t144 4t161 4v-69l-155 -8v-510h477v510l-156 8v69q46 0 162 -4t145 -4t144.5 4t161.5 4v-69l-160 -8v-1143l160 -8v-70q-46 0 -161.5 4t-144.5 4t-145 -4t-162 -4v70l156 8v557h-477v-557l155 -8v-70q-46 0 -161 4 t-144 4t-145 -4t-162 -4z" />
<glyph unicode="I" horiz-adv-x="786" d="M86 -4v70l160 8v1143l-160 8v69q46 0 162 -4t145 -4t146 4t163 4v-69l-159 -8v-1143l159 -8v-70q-46 0 -163 4t-146 4t-145 -4t-162 -4z" />
<glyph unicode="J" horiz-adv-x="1161" d="M37 221q0 95 53 149t141 54q60 0 100 -39.5t40 -99.5q0 -33 -9.5 -60.5t-23 -43t-27 -27t-23.5 -15.5l-9 -4q0 -18 6 -36t20.5 -37.5t43 -31.5t67.5 -12q217 0 217 309v17l-8 416v457l-199 8v69q36 0 167 -4t198 -4q41 0 147 4t147 4v-69l-155 -8v-844 q0 -212 -122.5 -318t-375.5 -106q-187 0 -291 70.5t-104 201.5z" />
<glyph unicode="K" horiz-adv-x="1482" d="M86 -4v70l160 8v1143l-160 8v69q46 0 162 -4t145 -4t146 4t163 4v-69l-159 -8v-613q195 185 252 242q126 129 175.5 191.5t49.5 105.5q0 29 -13 47.5t-38.5 25.5t-44.5 9t-50 2v67q41 0 142.5 -4t126.5 -4q26 0 134 4t148 4v-67q-60 -2 -148 -45t-161 -117q-6 -6 -95 -96 t-138 -138q102 -120 229 -323q65 -103 125.5 -211.5t88.5 -165.5l28 -57l147 -8v-70q-46 0 -174.5 4t-157.5 4t-146 -4t-163 -4v70l148 8q-43 116 -162 313q-102 169 -168 244q-23 -22 -68.5 -66.5t-66.5 -64.5v-426l157 -8v-70q-46 0 -162 4t-145 4t-145 -4t-162 -4z" />
<glyph unicode="L" horiz-adv-x="1218" d="M86 -4v70l164 8v1143l-160 8v69q46 0 162 -4t145 -4t146.5 4t163.5 4v-69l-160 -8v-1143l190 4q69 4 130 37.5t101.5 83.5t67 104.5t35.5 106.5l6 36h74l-12 -450q-81 0 -250 4t-281 4q-151 0 -323.5 -4t-198.5 -4z" />
<glyph unicode="M" horiz-adv-x="1800" d="M55 -4v70q48 0 78.5 7t59.5 30t43 72t14 126v916l-162 8v69l496 -8l317 -870h2l322 870l489 8v-69l-166 -8v-1143l166 -8v-70q-41 0 -158.5 4t-158.5 4t-155 -4t-155 -4v70l164 8v1052h-4l-403 -1126h-101l-407 1126h-4v-825q0 -78 13.5 -126.5t44 -71.5t64 -30t89.5 -7 v-70q-53 0 -129 4t-115 4t-115 -4t-129 -4z" />
<glyph unicode="N" horiz-adv-x="1437" d="M51 -4v70q47 0 77.5 7t60.5 29.5t44.5 71.5t14.5 125v725q0 54 -11.5 92.5t-28.5 59.5t-44.5 33t-51 15t-57.5 3v67l434 -8l639 -952h2v649q0 63 -10 107t-26.5 70.5t-45.5 41t-59.5 19t-75.5 4.5v69q53 0 132 -4t118 -4t115 4t129 4v-69q-46 0 -77.5 -8.5t-60 -32.5 t-43 -74t-14.5 -127v-967l-241 -18l-639 969h-2v-668q0 -77 13 -125t43.5 -71t65 -30t93.5 -7v-70q-53 0 -132 4t-118 4t-115 -4t-129 -4z" />
<glyph unicode="O" horiz-adv-x="1507" d="M98 633q0 146 39.5 265.5t104.5 197.5t151.5 130.5t176.5 75.5t184 23q96 0 185.5 -20.5t176 -70.5t150 -125t102.5 -192.5t39 -263.5q0 -147 -38.5 -267t-102 -198t-149.5 -131.5t-176.5 -76.5t-186.5 -23t-185.5 21t-176.5 71.5t-151 125.5t-103.5 193t-39.5 265z M434 643q0 -612 320 -612q156 0 237.5 153t81.5 459q0 305 -81.5 456.5t-237.5 151.5q-155 0 -237.5 -152t-82.5 -456z" />
<glyph unicode="P" horiz-adv-x="1302" d="M86 -4v70l164 8v1147l-164 4v69q47 0 154 -2t147 -2q38 0 156 2t174 2q90 0 164 -10.5t139.5 -36t109.5 -65.5t69.5 -102t25.5 -142q0 -185 -134 -286t-356 -101h-188v-477l205 -8v-70q-38 0 -167 4t-190 4q-45 0 -155 -4t-154 -4zM547 621h127q70 0 118.5 25.5t73.5 73 t35 100.5t10 122q0 138 -53 210.5t-192 72.5h-119v-604z" />
<glyph unicode="Q" horiz-adv-x="1513" d="M102 633q0 146 39.5 265.5t104 197.5t151 130.5t176.5 75.5t185 23q79 0 154 -15t149.5 -46.5t137 -85.5t110.5 -125.5t75 -174t27 -225.5q0 -127 -28 -233t-78 -182.5t-113 -131t-141 -90.5q25 -48 49 -81t59 -66t82 -49.5t105 -16.5q139 0 268 129l53 -32 q-23 -43 -41.5 -75.5t-57.5 -82.5t-78.5 -82.5t-98 -57t-121.5 -24.5q-59 0 -108.5 12.5t-86 31.5t-67.5 51t-51.5 62t-39.5 73.5t-30.5 76.5t-24.5 80q-47 -8 -104 -8q-97 0 -186.5 21t-176.5 71.5t-151 125.5t-103 193t-39 265zM426 643q0 -240 49 -389h2q82 115 219 115 q100 0 161.5 -53t109.5 -150h2q118 155 118 477q0 297 -84.5 452.5t-244.5 155.5q-158 0 -245 -156.5t-87 -451.5zM508 170q84 -139 250 -139q44 0 84 12q-14 57 -27 94t-34 73t-50.5 53.5t-68.5 17.5q-49 0 -88.5 -31.5t-65.5 -79.5z" />
<glyph unicode="R" horiz-adv-x="1411" d="M86 -4v70l164 8v1147l-164 4v69q46 0 155 -2t146 -2q33 0 152.5 2t193.5 2q112 0 196 -15t151 -49t102 -95.5t35 -149.5q0 -138 -96 -213t-281 -113v-6q37 -6 63.5 -11t69.5 -19t73.5 -31.5t65.5 -49t57 -71t37 -98t15 -129.5q0 -79 12.5 -118.5t38.5 -53t78 -13.5l57 2 v-69q-80 -10 -180 -10t-166 20t-102 62.5t-50 97t-14 135.5t-12.5 137t-43.5 101.5t-89 67.5t-144 22h-59v-551l184 -8v-70q-35 0 -149.5 4t-186.5 4q-43 0 -154.5 -4t-154.5 -4zM547 694h78q150 0 218 69t68 206q0 128 -54.5 192t-197.5 64h-112v-531z" />
<glyph unicode="S" horiz-adv-x="1230" d="M147 -20q0 49 3.5 128t3.5 128q0 48 -3.5 122t-3.5 115h74q5 -26 18.5 -65t37 -90t59.5 -100t79 -91t101.5 -68t122.5 -26q119 0 177 56.5t58 143.5q0 60 -24 106t-65 74.5t-94 50.5t-111.5 41t-117 39.5t-111.5 51.5t-94 71.5t-65 105t-24 147.5q0 88 28 159t72.5 116 t103.5 75t117 42.5t117 12.5q75 0 139.5 -13.5t103 -27.5t48.5 -14q16 0 27 11t14 23l4 11h68q0 -34 -2 -91.5t-2 -90.5q0 -52 2 -120.5t2 -97.5h-68q-5 30 -21 70t-47 88.5t-70 88t-95.5 66.5t-118.5 27q-92 0 -149.5 -51t-57.5 -131q0 -55 25 -97t67 -68.5t96.5 -47.5 t114.5 -40t120.5 -41t115 -55.5t96.5 -77.5t67 -112.5t25 -156.5q0 -109 -39 -192.5t-106.5 -132t-151 -73t-180.5 -24.5q-95 0 -178 18.5t-131 37t-58 18.5q-19 0 -32 -12t-16 -25l-3 -12h-68z" />
<glyph unicode="T" horiz-adv-x="1312" d="M76 838l22 456q95 0 275.5 -4t285.5 -4t282.5 4t272.5 4l23 -456h-70l-16 61q-6 26 -18 60t-36.5 81t-53.5 85t-72.5 65t-91.5 27h-72v-1143l203 -8v-70q-53 0 -174.5 4t-176.5 4t-179 -4t-177 -4v70l203 8v1143h-72q-47 0 -90.5 -27t-73 -65t-53.5 -85t-36.5 -81.5 t-18.5 -59.5l-17 -61h-69z" />
<glyph unicode="U" horiz-adv-x="1380" d="M37 1223v69q46 0 167 -4t150 -4t141 4t158 4v-69l-147 -9v-655q0 -237 67.5 -345t214.5 -108q43 0 81 9.5t80.5 38t72.5 75t50 128t20 188.5v436q0 78 -14 127.5t-44 74t-64.5 32.5t-88.5 8v69q53 0 130 -4t115 -4t112 4t128 4v-69q-47 0 -78 -8.5t-59 -32.5t-41.5 -74 t-13.5 -127v-440q0 -568 -484 -568q-493 0 -493 498v743z" />
<glyph unicode="V" horiz-adv-x="1312" d="M-20 1225v69q53 0 152 -4t151 -4q47 0 165 4t179 4v-69l-185 -17l306 -893h4l237 662q22 61 25 105q1 9 1 17q0 33 -10 54q-12 27 -40 43.5t-63.5 22.5t-84.5 6v69q51 0 155 -4t154 -4q37 0 111 4t123 4v-69q-48 0 -80 -7t-68.5 -30.5t-67.5 -73t-61 -129.5l-358 -985 h-164l-436 1212z" />
<glyph unicode="W" horiz-adv-x="1929" d="M-20 1225v69q53 0 156 -4t155 -4q45 0 131 4t156 4v-69l-140 -11l285 -890h6l197 563l-86 254q-16 46 -44.5 65t-93.5 19v69q40 0 127.5 -4t147.5 -4q54 0 158.5 4t179.5 4v-69q-25 0 -45.5 -2.5t-42 -9t-35 -19.5t-22.5 -31.5t-7.5 -47t13.5 -64.5l231 -727h4l217 669 q18 59 22 101q1 11 1 21q-1 27 -7 47q-10 26 -34.5 40t-53.5 18.5t-73 4.5v69q49 0 130.5 -4t131.5 -4q37 0 108 4t123 4v-69q-37 0 -64 -4.5t-57 -19.5t-53.5 -41.5t-47 -71.5t-44.5 -109l-317 -979h-170l-254 760h-2l-267 -760h-168l-403 1214z" />
<glyph unicode="X" horiz-adv-x="1306" d="M10 -4v70q91 0 172 56.5t162 178.5l182 291l-381 622l-133 11v69q49 0 143 -4t142 -4q43 0 146 4t169 4v-69l-135 -11l248 -403h2l115 180q61 95 61 160q0 74 -131 74v69q46 0 121.5 -4t120.5 -4q36 0 110 4t127 4v-69q-88 0 -161 -53.5t-164 -188.5l-156 -248l406 -659 l137 -10v-70q-51 0 -146.5 4t-150.5 4q-47 0 -157 -4t-179 -4v70l162 10v4l-271 438h-2l-135 -217q-65 -100 -65 -149q0 -86 168 -86v-70q-47 0 -139.5 4t-149.5 4q-36 0 -111 -4t-127 -4z" />
<glyph unicode="Y" horiz-adv-x="1312" d="M-4 1225v69q58 0 154 -4t147 -4q46 0 154 4t180 4v-69l-162 -11l291 -561h8q28 68 170 334q43 86 43 139q0 25 -10 44q-31 55 -158 55v69q51 0 138.5 -4t138.5 -4q37 0 108 4t125 4v-69q-96 0 -166 -54t-137 -190q-138 -254 -168 -328q-49 -118 -49 -235v-344l162 -8v-70 q-46 0 -163.5 4t-146.5 4t-146 -4t-163 -4v70l162 8v448l-371 692z" />
<glyph unicode="Z" horiz-adv-x="1222" d="M76 -4v74l678 1142q-111 -2 -226 -2q-62 -1 -115.5 -22t-90.5 -54.5t-61.5 -72.5t-35.5 -80l-20 -82h-70l23 389q67 0 215 -4t229 -4q76 0 240 4t262 4v-74l-672 -1142q129 2 211 2q84 0 167.5 36.5t147 108.5t78.5 162l6 39h70v-424q-65 0 -232.5 4t-261.5 4 q-89 0 -268 -4t-274 -4z" />
<glyph unicode="[" horiz-adv-x="972" d="M266 -279v1739h584v-65l-305 -4v-1600l305 -4v-66h-584z" />
<glyph unicode="\" horiz-adv-x="864" d="M68 1513l90 29l639 -1948l-90 -30z" />
<glyph unicode="]" horiz-adv-x="972" d="M123 -213l305 4v1600l-305 4v65h584v-1739h-584v66z" />
<glyph unicode="^" horiz-adv-x="1198" d="M190 461l347 756h120l351 -756h-127l-283 622h-2l-279 -622h-127z" />
<glyph unicode="_" horiz-adv-x="1187" d="M-20 -221h1228v-115h-1228v115z" />
<glyph unicode="`" d="M250 1415q0 51 33.5 84t81.5 33q89 0 145 -107l182 -323l-37 -35l-313 211q-92 59 -92 137z" />
<glyph unicode="a" horiz-adv-x="1118" d="M76 240q0 55 19 99.5t49 74.5t77.5 51.5t95.5 33.5t112 19t117.5 8.5t121.5 1.5v101q1 25 1 46q-1 39 -3 67q-4 44 -17.5 83t-44 57.5t-78.5 18.5q-67 0 -106 -24t-51 -48q5 -3 12.5 -9t20 -30t12.5 -55q0 -55 -38 -89t-100 -34q-61 0 -99 35t-38 96q0 105 117.5 166.5 t290.5 61.5q75 0 134.5 -12t99.5 -32t69 -51.5t45 -63.5t25 -74q9 -44 11 -80q1 -24 1 -53v-30l-10 -387v-11q0 -43 14 -67q16 -28 49 -28q26 0 46 22t27 44l7 22l68 -16q-1 -8 -4.5 -20.5t-19.5 -44.5t-40 -57t-70.5 -45t-105.5 -20q-79 0 -136.5 35.5t-82.5 108.5h-4 q-80 -152 -281 -152q-58 0 -110 14.5t-99.5 45t-75.5 87.5t-28 134zM352 266q0 -182 133 -182q66 0 118.5 57t55.5 160l5 158h-20q-110 -1 -174 -21q-70 -22 -94 -62.5t-24 -109.5z" />
<glyph unicode="b" horiz-adv-x="1171" d="M10 1364v70l402 20v-668h4q44 79 126 131t195 52q174 0 268.5 -128.5t94.5 -340.5q0 -87 -16 -160.5t-42.5 -126t-63 -94.5t-76.5 -68t-84.5 -43t-84.5 -24t-80 -7q-77 0 -140.5 20.5t-90.5 40.5t-45 40l-166 -90l-59 22v1241q0 33 -7 55t-16 33.5t-31 17t-38 6.5t-50 1z M418 137q56 -71 174 -71q37 0 67.5 9.5t61 36t51 70t33 116t12.5 169.5q0 81 -8 143.5t-26.5 117.5t-55 84.5t-88.5 29.5q-84 0 -152.5 -85.5t-68.5 -215.5v-404z" />
<glyph unicode="c" horiz-adv-x="983" d="M72 471q0 107 31.5 193.5t82 143t118 94.5t137 54.5t141.5 16.5q182 0 269 -74t87 -176q0 -73 -46.5 -117.5t-111.5 -44.5q-57 0 -94 36t-37 91q0 42 20.5 71.5t40.5 38.5l21 9q0 30 -31 62t-98 32q-74 0 -124 -34.5t-74 -98.5t-33 -131t-9 -156q0 -413 263 -413 q51 0 99 18t80 43.5t57 51t37 43.5l11 18l60 -37q-5 -10 -14.5 -26t-45.5 -57.5t-78.5 -73t-114.5 -57.5t-153 -26q-237 0 -364 129.5t-127 376.5z" />
<glyph unicode="d" horiz-adv-x="1185" d="M72 440q0 119 32 213.5t80 150.5t110.5 93t118 50.5t107.5 13.5q144 0 234 -74h2v364q0 41 -8 65t-30 34t-41 12t-61 2v70l404 20v-1376l139 -4v-70l-393 -20l-4 180h-2q-48 -86 -131 -139.5t-195 -53.5q-174 0 -268 128.5t-94 340.5zM354 473q0 -82 7.5 -144t26 -118 t55.5 -85.5t92 -29.5q80 0 148.5 88t68.5 219v377q-12 18 -30.5 35t-58.5 34t-88 17q-35 0 -63.5 -8.5t-59 -34t-51 -67.5t-34 -114.5t-13.5 -168.5z" />
<glyph unicode="e" d="M72 471q0 105 31 191.5t80.5 142.5t114.5 94.5t131 55t132 16.5q93 0 164.5 -23.5t114.5 -60t70.5 -87t37.5 -99.5t10 -103q0 -26 -2 -53.5t-4 -41.5l-2 -14h-588q1 -43 2.5 -68t7.5 -75t15.5 -82t29.5 -73t46.5 -65t68 -41t93.5 -17q51 0 99 18t80 43.5t57 51t37 43.5 l11 18l60 -37q-5 -10 -14.5 -26t-45.5 -57.5t-78.5 -73t-114.5 -57.5t-153 -26q-237 0 -364 129.5t-127 376.5zM365 559h309q8 52 8 115q0 227 -137 227q-162 0 -180 -342z" />
<glyph unicode="f" horiz-adv-x="722" d="M53 854v80h162v164q0 108 36 191t97 131t133.5 72t153.5 24q137 0 219 -54t82 -149q0 -60 -36.5 -98.5t-98.5 -38.5q-54 0 -91.5 38.5t-37.5 92.5q0 26 10 49t20 33l11 10q0 2 -1.5 5t-7 11t-13.5 14.5t-23 11.5t-33 5q-161 0 -161 -298q0 -22 1 -46l6 -168h221v-80h-217 v-778l195 -10v-70q-46 0 -154 4t-176 4q-62 0 -144 -4t-130 -4v70l139 10v778h-162z" />
<glyph unicode="g" horiz-adv-x="1067" d="M55 -256q0 78 54 131t118 53q57 0 74 -45q4 -17 3 -55v-6q0 -35 7 -68q17 -74 89.5 -127t193.5 -53q124 0 190 57t66 138q0 75 -58 118t-180 43h-112q-353 0 -353 217q0 59 40 111t106 70v2q-184 83 -184 288q0 73 24 133.5t64 100.5t92.5 68t109 40.5t115.5 12.5 q125 0 221 -45q-6 15 -6 39q0 101 57 174t148 73q65 0 103 -35.5t38 -91.5q0 -54 -35 -88t-88 -34q-32 0 -59.5 15.5t-38.5 30.5l-12 15q-51 -14 -51 -84q0 -44 32 -76q97 -86 97 -227q0 -90 -35.5 -160t-95 -110.5t-129.5 -61t-146 -20.5q-35 0 -76.5 5t-48.5 5 q-32 0 -52 -21t-20 -43q0 -26 10.5 -42t37 -23.5t54 -9.5t77.5 -2h168q64 0 119 -9.5t103 -31t81.5 -54t53 -81t19.5 -109.5q0 -81 -31.5 -147t-83 -109t-121 -71.5t-142 -41t-148.5 -12.5q-124 0 -224.5 25t-167.5 84t-67 145zM377 629q0 -145 34.5 -208t102.5 -63 q70 0 104.5 62.5t34.5 208.5q0 148 -34.5 211t-104.5 63q-68 0 -102.5 -63.5t-34.5 -210.5z" />
<glyph unicode="h" horiz-adv-x="1249" d="M41 -4v70l141 10v1175q0 33 -7 55t-16 33.5t-30.5 17t-37.5 6.5t-50 1v70l401 20v-668h2q53 84 138.5 135.5t197.5 51.5q136 0 216.5 -90t80.5 -275v-532l142 -10v-70q-48 0 -130.5 4t-144.5 4t-142 -4t-128 -4v70l135 10v473q0 171 -26.5 236t-106.5 65 q-83 0 -155 -89.5t-72 -228.5v-456l137 -10v-70q-46 0 -127 4t-144 4q-61 0 -143.5 -4t-130.5 -4z" />
<glyph unicode="i" horiz-adv-x="632" d="M57 -4v70l140 10v676q0 24 -3 41.5t-6.5 30t-14 20t-18 12t-27 6t-31 2t-40.5 0.5v70l410 20v-878l139 -10v-70q-46 0 -129 4t-145 4t-144.5 -4t-130.5 -4zM168 1288q0 72 49 114t117 42q67 0 115.5 -42t48.5 -114t-48.5 -113.5t-115.5 -41.5q-68 0 -117 41.5t-49 113.5z " />
<glyph unicode="j" horiz-adv-x="602" d="M-242 -293q0 55 40 95t104 40q50 0 85.5 -34t35.5 -91q0 -27 -10.5 -52.5t-20.5 -37.5l-10 -12q23 -33 63 -33q24 0 43 6.5t38 26.5t31 52.5t19 88.5q6 50 6 114v19l-4 267v596q0 28 -3 47.5t-13 32t-18 19t-28 9.5t-32.5 3.5t-42.5 0.5v70l408 20v-958q0 -483 -416 -483 q-136 0 -205.5 58t-69.5 136zM154 1288q0 72 48.5 114t116.5 42q67 0 115.5 -42t48.5 -114t-48.5 -113.5t-115.5 -41.5q-68 0 -116.5 41.5t-48.5 113.5z" />
<glyph unicode="k" horiz-adv-x="1153" d="M35 -4v70l139 10v1175q0 33 -6.5 55t-15.5 33.5t-30 17t-37 6.5t-50 1v70l405 20v-952q38 21 94.5 63t92.5 74q37 34 56.5 54t39.5 48t20 47q0 36 -31.5 60t-84.5 24v68h508v-68q-80 -11 -170 -63t-170 -121q-95 -81 -179 -145l2 -2q82 0 145 -16.5t101.5 -44.5t65.5 -64 t40.5 -76t23.5 -80l19 -76t21.5 -64t35.5 -44.5t58 -16.5l68 4v-67q-70 -12 -248 -12q-69 0 -115 25.5t-67.5 66t-35 90t-24 99t-26.5 90t-51 66t-90 25.5q-47 0 -97 -12v-358l136 -10v-70q-46 0 -127 4t-144 4q-61 0 -142.5 -4t-129.5 -4z" />
<glyph unicode="l" horiz-adv-x="645" d="M47 -4v70l141 10v1173q0 33 -7 55t-15.5 33.5t-30 17t-37.5 6.5t-51 1v72l410 20v-1378l139 -10v-70q-46 0 -128.5 4t-145.5 4q-61 0 -144 -4t-131 -4z" />
<glyph unicode="m" horiz-adv-x="1824" d="M59 -4v70l140 10v680q0 27 -2.5 45.5t-11.5 31t-16 18.5t-28 9t-34.5 3.5t-47.5 0.5v70l392 20l6 -170h4q46 84 127 135.5t190 51.5q52 0 95.5 -16t69.5 -38t46.5 -53t29.5 -53t15 -45h4q44 91 127.5 148t198.5 57q295 0 295 -365v-530l139 -10v-70q-46 0 -128 4t-144 4 q-58 0 -131 -4t-117 -4v70l113 10v452q0 41 -0.5 67.5t-3 64t-7.5 61.5t-14 51t-22 42t-33 25.5t-45 10.5q-31 0 -63.5 -17t-63 -50t-50.5 -92t-20 -134v-481l131 -10v-70q-44 0 -122 4t-136 4q-59 0 -136 -4t-122 -4v70l117 10v452q0 34 -0.5 52.5t-1.5 53t-4.5 55.5 t-9 49.5t-14.5 45.5t-21.5 34t-31 24.5t-40.5 7.5q-80 0 -145.5 -88.5t-65.5 -239.5v-446l143 -10v-70q-46 0 -130 4t-146 4t-144.5 -4t-130.5 -4z" />
<glyph unicode="n" horiz-adv-x="1265" d="M57 -4v70l140 10v680q0 27 -2.5 45.5t-11.5 31t-16 18.5t-28 9t-34.5 3.5t-47.5 0.5v70l394 20l4 -178h2q121 195 342 195q136 0 215.5 -89t79.5 -274v-532l141 -10v-70q-48 0 -130 4t-144 4t-142.5 -4t-128.5 -4v70l135 10v473q0 171 -26.5 236t-106.5 65 q-83 0 -154 -89.5t-71 -230.5v-454l135 -10v-70q-46 0 -127 4t-143 4t-144.5 -4t-130.5 -4z" />
<glyph unicode="o" horiz-adv-x="1140" d="M72 459q0 126 40.5 225.5t110 160.5t158 92.5t188.5 31.5q103 0 191 -28.5t158.5 -85.5t110.5 -153.5t40 -222.5q0 -127 -40 -226.5t-109.5 -160.5t-158.5 -92t-192 -31q-82 0 -154 17t-135.5 55t-109 94t-72 139t-26.5 185zM371 469q0 -216 47 -323t151 -107 q106 0 153.5 107t47.5 323q0 215 -47.5 322.5t-153.5 107.5q-103 0 -150.5 -107.5t-47.5 -322.5z" />
<glyph unicode="p" horiz-adv-x="1185" d="M25 864v70l391 20l6 -178h2q50 86 132 138.5t194 52.5q175 0 269.5 -128t94.5 -339q0 -119 -30 -213t-76.5 -150t-108 -93t-118.5 -50.5t-115 -13.5q-147 0 -236 65h-2v-436l176 -10v-70q-46 0 -139.5 4t-155.5 4q-61 0 -142.5 -4t-129.5 -4v70l129 10v1147q0 24 -3 40.5 t-6 28.5t-13.5 19.5t-17.5 11.5t-27 5.5t-32 2t-42 0.5zM432 133q21 -26 64 -48t108 -22q37 0 68 9.5t61.5 36.5t51 70.5t33.5 117t13 170.5q0 82 -8 145t-26.5 118t-55.5 84.5t-90 29.5q-81 0 -150 -86t-69 -217v-408z" />
<glyph unicode="q" horiz-adv-x="1165" d="M66 440q0 119 30.5 213t78 150.5t110 93.5t119.5 50.5t114 13.5q73 0 135 -20t89 -39.5t46 -39.5l166 94l60 -22v-1325l127 -10v-70q-46 0 -128.5 4t-144.5 4q-61 0 -154 -4t-141 -4v70l179 10v547h-2q-114 -185 -322 -185q-174 0 -268 128.5t-94 340.5zM348 473 q0 -65 4 -116t15.5 -102t31 -84.5t52.5 -54t77 -20.5q80 0 150 87t70 220v394q-60 75 -177 75q-223 0 -223 -399z" />
<glyph unicode="r" horiz-adv-x="946" d="M57 -4v70l140 10v680q0 24 -3 40.5t-6 28.5t-13.5 19.5t-17.5 11.5t-26.5 5.5t-31.5 2t-42 0.5v70l385 20l7 -221h2q46 109 123.5 170.5t181.5 61.5q71 0 122.5 -44t51.5 -128q0 -66 -41 -110t-103 -44q-55 0 -91 33t-36 84q0 21 7.5 39.5t14.5 26.5l7 9q-6 11 -31 11 q-74 0 -136 -127.5t-62 -345.5v-293l194 -10v-70q-46 0 -152.5 4t-174.5 4q-62 0 -141.5 -4t-127.5 -4z" />
<glyph unicode="s" horiz-adv-x="942" d="M86 -10q0 40 3 96t3 96t-3 74t-3 68h78q6 -27 20.5 -60t42.5 -72.5t62.5 -71.5t85 -53.5t106.5 -21.5q75 0 119.5 35.5t44.5 97.5q0 43 -23.5 76.5t-62 53.5t-87.5 39.5t-100.5 34.5t-100.5 38.5t-87.5 51.5t-62 74.5t-23.5 106.5q0 69 22.5 124.5t59 90t85.5 57.5 t98 32.5t100 9.5q56 0 103.5 -10.5t75.5 -20.5t36 -10q13 0 22.5 7.5t13.5 14.5l3 8h67q0 -34 -2 -76.5t-2 -72.5q0 -36 2 -64t2 -57h-71q-14 41 -32 74t-47 66.5t-72.5 52t-98.5 18.5q-67 0 -106.5 -34.5t-39.5 -82.5q0 -38 23.5 -67t61.5 -45.5t87 -34.5t100.5 -33 t100.5 -40.5t87 -58t61.5 -86t23.5 -122.5q0 -87 -32.5 -152t-88.5 -102.5t-123.5 -55.5t-144.5 -18q-71 0 -133.5 15.5t-100 31t-46.5 15.5q-12 0 -20.5 -9.5t-11.5 -18.5l-3 -9h-72z" />
<glyph unicode="t" horiz-adv-x="724" d="M25 854v80h153v342q68 0 135 10t100 20l33 9v-381h230v-80h-230v-586q-1 -27 -1 -51q1 -17 1 -33q2 -36 9.5 -61t25.5 -38t49 -13q34 0 63.5 27t42.5 54l13 27l66 -24q-2 -8 -6 -20.5t-23 -45t-45 -57.5t-75 -45.5t-109 -20.5q-73 0 -125.5 16.5t-82 41.5t-46 66 t-21 79.5t-4.5 93.5v590h-153z" />
<glyph unicode="u" horiz-adv-x="1228" d="M25 864v70l409 20v-563q0 -59 1 -91.5t5 -72t12 -59.5t22.5 -39.5t37 -27t53.5 -7.5q83 0 155.5 89.5t72.5 230.5v338q0 28 -3.5 47.5t-13 32t-18 19t-28.5 9.5t-32.5 3.5t-42.5 0.5v70l408 20v-876l139 -4v-70l-393 -20l-6 182h-2q-53 -88 -139.5 -140.5t-202.5 -52.5 q-158 0 -226.5 83t-68.5 261v435q0 24 -3 41.5t-6 30t-13.5 20t-17.5 12t-26.5 6t-31.5 2t-41 0.5z" />
<glyph unicode="v" horiz-adv-x="1075" d="M-31 872v70q58 0 136 -4t128 -4q46 0 125.5 4t151.5 4v-70l-129 -10l235 -651h5l151 395q38 105 38 165q0 27 -8 45q-26 56 -151 56v70q52 0 124 -4t118 -4q37 0 100 4t117 4v-70q-90 -3 -145 -59t-111 -207l-242 -620h-172l-338 876z" />
<glyph unicode="w" horiz-adv-x="1548" d="M-31 872v70q56 0 127 -4t119 -4q45 0 119.5 4t138.5 4v-70l-111 -10l216 -594h2l143 412l-49 125q-14 39 -32.5 53t-59.5 14v70q20 0 87.5 -4t121.5 -4q39 0 122.5 3.5t114.5 4.5v-70q-64 0 -78 -25q-6 -10 -6 -24q0 -20 12 -47l185 -508h4l127 375q23 73 23 121 q-1 38 -15 59q-32 49 -143 49v70q50 0 119.5 -4t113.5 -4q34 0 97.5 4t115.5 4v-70q-86 -3 -137.5 -52.5t-93.5 -174.5l-224 -659h-149l-213 577h-4l-199 -577h-147l-328 876z" />
<glyph unicode="x" horiz-adv-x="1062" d="M-23 -4v70q168 0 316 213l113 157l-302 426l-127 10v70q53 0 132.5 -4t126.5 -4q43 0 125.5 4t148.5 4v-70l-104 -10l190 -266l55 78q68 97 68 135q0 63 -107 63v70q46 0 111.5 -4t110.5 -4q36 0 98 4t115 4v-70q-170 0 -314 -208l-94 -132l326 -456l129 -10v-70 q-54 0 -138 4t-139 4q-47 0 -132.5 -4t-154.5 -4v70l129 10l-210 299l-74 -103l-36 -54t-22 -40.5t-10 -38.5q0 -73 146 -73v-70q-47 0 -128.5 4t-138.5 4q-36 0 -97 -4t-112 -4z" />
<glyph unicode="y" horiz-adv-x="1075" d="M-31 872v70q56 0 133.5 -4t128.5 -4q46 0 127.5 4t153.5 4v-70l-127 -10l258 -604h2l135 348q29 78 36 130q1 13 1 25q0 34 -13 57q-18 30 -54 42t-97 12v70q46 0 115 -4t121 -4q38 0 104 4t115 4v-70q-89 -3 -140.5 -58t-111.5 -210l-205 -526q-19 -50 -43 -117 t-38.5 -109t-35.5 -94.5t-38.5 -84t-43.5 -65.5t-53.5 -52t-64.5 -29.5t-82 -11.5q-112 0 -170.5 56.5t-58.5 131.5q0 59 37.5 102t99.5 43q54 0 87.5 -32t33.5 -86q0 -24 -8.5 -45.5t-16.5 -30.5l-8 -10q12 -25 55 -25q52 0 94 48t80 145l43 112l-426 938z" />
<glyph unicode="z" horiz-adv-x="956" d="M45 -6v69l539 805v4q-1 0 -54.5 -1t-91.5 -1q-227 0 -268 -198l-12 -70h-70l21 342q67 0 181 -4t195 -4q77 0 188 4t208 4v-70l-529 -804v-4q4 0 56 1t84 1q125 0 209 68.5t104 195.5l8 37h70v-375q-65 0 -186.5 4t-215.5 4q-89 0 -215 -4t-221 -4z" />
<glyph unicode="{" horiz-adv-x="972" d="M205 559v66q113 9 164.5 64.5t50 134.5t-7.5 174q-5 51 -7 77.5t-2.5 74.5t5.5 74t18.5 65t34.5 60.5t56 47.5t80 38t110 19.5t143 5.5v-65q-68 0 -111 -16.5t-59.5 -45t-21.5 -68.5t3.5 -86.5t15 -99t14 -105t-1 -106.5t-29 -102t-70.5 -93t-125 -77v-8 q83 -36 135 -86.5t70.5 -105.5t21.5 -115.5t-6.5 -119t-18.5 -114.5t-10 -102.5t14 -82t59 -55.5t120 -20v-66q-139 -4 -232.5 20.5t-137 69.5t-62.5 105.5t-16 129t10 137.5t8 133.5t-14 116t-65 85.5t-136 41z" />
<glyph unicode="|" horiz-adv-x="659" d="M281 -424v1952h98v-1952h-98z" />
<glyph unicode="}" horiz-adv-x="972" d="M123 -213q76 0 120 20t59 55.5t14 82t-10 102.5t-18.5 114.5t-6.5 119t21.5 115.5t70.5 105.5t135 86.5v8q-75 32 -125 77t-70.5 93t-29 102t-1 106.5t14 105t15 99t3.5 86.5t-21.5 68.5t-59.5 45t-111 16.5v65q172 5 275.5 -33.5t133 -105.5t38 -152t-8.5 -171 q-6 -95 -7.5 -174t50 -134.5t164.5 -64.5v-66q-86 -7 -136 -41t-65 -85.5t-14 -116t8 -133.5t10 -137.5t-16 -129t-62.5 -105.5t-137 -69.5t-232.5 -20.5v66z" />
<glyph unicode="~" horiz-adv-x="1187" d="M70 432q4 9 11.5 24.5t35.5 55.5t60 70t85 55t111 25q56 0 118 -23.5t107.5 -51.5t105 -51.5t111.5 -23.5q37 0 73 16.5t60 39.5t43 46t28 40l9 16l90 -62q-4 -9 -12 -24t-37.5 -54t-63.5 -68.5t-89.5 -54t-116.5 -24.5q-60 0 -122 23t-105.5 50.5t-100 50.5t-106.5 23 q-36 0 -70.5 -16t-58 -39t-41.5 -46.5t-27 -39.5l-8 -16z" />
<glyph unicode="&#xa1;" horiz-adv-x="681" d="M158 166q0 73 27.5 162t66.5 222t59 284h70q16 -120 44 -230.5t51.5 -174t41 -134t17.5 -129.5q0 -91 -51 -157t-138 -66t-137.5 65.5t-50.5 157.5zM176 1165q0 71 48.5 116.5t121.5 45.5q75 0 125.5 -45.5t50.5 -116.5t-51 -117.5t-125 -46.5q-73 0 -121.5 46.5 t-48.5 117.5z" />
<glyph unicode="&#xa2;" horiz-adv-x="1083" d="M109 565q0 122 38 217t102 152.5t139 89t159 39.5v305h69v-301q95 -1 167 -23.5t112 -59.5t59 -79t19 -88q0 -73 -46.5 -117.5t-111.5 -44.5q-56 0 -92.5 36t-36.5 91q0 42 20.5 71.5t41.5 38.5l20 9q-2 31 -34 62.5t-105 31.5h-13v-831q16 -2 39 -2q51 0 99.5 18 t81 43.5t57.5 51t37 43.5l12 18l57 -37q-5 -9 -14 -24.5t-42.5 -55.5t-74 -71t-108.5 -58.5t-144 -30.5v-295h-69v295q-215 13 -326.5 142t-111.5 364zM389 575q0 -309 156 -389h2v795h-2q-89 -35 -122.5 -143t-33.5 -263z" />
<glyph unicode="&#xa3;" horiz-adv-x="1323" d="M35 143q0 92 69 154.5t193 62.5q50 0 145 -18q-5 126 -47 254h-276v74h250q-45 133 -45 233q0 184 138.5 305t362.5 121q171 0 277 -71.5t106 -186.5q0 -83 -46 -132.5t-118 -49.5q-65 0 -106 37t-41 98q0 28 9.5 51t22.5 35t26 20.5t23 11.5l9 3q0 45 -44.5 80 t-127.5 35q-78 0 -134 -73t-56 -218q0 -65 12 -165.5t14 -133.5h320v-74h-316v-27q0 -137 -41 -268q230 -57 355 -57q111 0 163.5 38t61.5 138h70q0 -38 -2 -73.5t-10 -82.5t-20 -86.5t-35 -79.5t-52.5 -68t-74 -45.5t-99.5 -17.5q-49 0 -102.5 12.5t-120.5 41t-104.5 46.5 t-115.5 58q-110 -160 -278 -160q-93 0 -154 49t-61 129zM129 141q0 -46 35 -76t88 -30q59 0 107.5 34.5t70.5 104.5q-125 59 -192 59q-109 0 -109 -92z" />
<glyph unicode="&#xa4;" horiz-adv-x="1187" d="M111 94l211 221q-76 85 -76 217q0 126 80 216l-209 219l84 75l207 -229q84 49 190 49q111 0 193 -45l204 225l84 -75l-207 -215q78 -91 78 -220q0 -128 -78 -219l213 -219l-84 -76l-208 232q-80 -47 -195 -47q-113 0 -195 45l-208 -232zM436 532q0 -125 45 -189t117 -64 t117 62.5t45 190.5q0 124 -45.5 189t-116.5 65t-116.5 -63t-45.5 -191z" />
<glyph unicode="&#xa5;" horiz-adv-x="1226" d="M-31 1225v69q50 0 144.5 -4t138.5 -4q40 0 140 4t165 4v-69l-137 -11l287 -518h8q12 27 30 61.5t33.5 61.5t47 81t51.5 89q69 126 48.5 181t-139.5 55v69q44 0 126 -4t126 -4q37 0 107.5 4t124.5 4v-69q-95 0 -167 -55t-147 -191q-104 -180 -147 -270h301v-80h-334 q-26 -82 -26 -170v-51h360v-80h-360v-254l163 -8v-70q-46 0 -162 4t-145 4t-146 -4t-163 -4v70l166 8v254h-352v80h352v157l-35 64h-317v80h272l-283 505z" />
<glyph unicode="&#xa6;" horiz-adv-x="659" d="M281 307h98v-731h-98v731zM281 797v731h98v-731h-98z" />
<glyph unicode="&#xa7;" horiz-adv-x="1138" d="M106 578q0 114 66 196t164 123q-137 116 -137 246q0 157 112.5 246.5t294.5 89.5q162 0 256 -67.5t94 -176.5q0 -70 -39 -113t-104 -43q-53 0 -88 34.5t-35 80.5q0 41 21 71t51 40l-2 8q-3 41 -46 70.5t-116 29.5q-86 0 -141.5 -46t-55.5 -128q0 -54 34.5 -104.5t90 -93 t123 -85.5t134.5 -91.5t122.5 -101.5t90 -124t34.5 -152q0 -98 -52 -170t-134 -116q125 -118 125 -244q0 -158 -123 -256t-322 -98q-176 0 -286.5 73.5t-110.5 196.5q0 78 46 130t122 52q55 0 91 -36.5t36 -90.5q0 -26 -8 -47t-19 -33t-22 -20t-19 -11l-8 -3l2 -13 q3 -54 53.5 -89.5t137.5 -35.5q96 0 156.5 54.5t60.5 152.5q0 55 -36 105t-93 90.5t-126.5 80.5t-139 83t-126.5 90.5t-93 110.5t-36 135zM291 686q0 -49 30.5 -96t86.5 -89.5t114 -79t135 -85t127 -86.5q64 47 64 143q0 58 -26.5 110t-79.5 99.5t-101.5 82t-125.5 84 t-118 79.5q-47 -18 -76.5 -60.5t-29.5 -101.5z" />
<glyph unicode="&#xa8;" horiz-adv-x="1009" d="M125 1280q0 67 42.5 109.5t106.5 42.5q62 0 105 -43t43 -109q0 -65 -43 -107.5t-105 -42.5q-64 0 -106.5 42.5t-42.5 107.5zM588 1280q0 67 42.5 109.5t106.5 42.5q63 0 105.5 -43t42.5 -109q0 -65 -43 -107.5t-105 -42.5q-64 0 -106.5 42.5t-42.5 107.5z" />
<glyph unicode="&#xa9;" horiz-adv-x="1449" d="M68 557q0 147 54 270t145.5 204t210.5 126t251 45q131 0 248 -40.5t208 -115.5t144 -193.5t53 -264.5q0 -147 -54 -270t-144.5 -204t-208 -126t-246.5 -45q-134 0 -253 40.5t-210 115.5t-144.5 193.5t-53.5 264.5zM238 571q0 -258 139.5 -408.5t351.5 -150.5 q143 0 257.5 66t182.5 194.5t68 300.5q0 130 -39.5 236.5t-108 177t-161 108.5t-199.5 38q-212 0 -351.5 -152.5t-139.5 -409.5zM387 582q0 77 23.5 140t60.5 102.5t85.5 66t94.5 37t90 10.5t83.5 -9t63.5 -18.5t30 -9.5q10 0 17.5 5.5t10.5 10.5l2 5h53q0 -25 -2 -59.5 t-2 -57.5q0 -38 2 -78.5t2 -62.5h-51q-2 28 -9 55.5t-21.5 56.5t-35 51t-53 36t-71.5 14q-180 0 -180 -291q0 -42 7.5 -85t26.5 -93t61.5 -81.5t102.5 -31.5q39 0 76.5 12.5t62 30t43.5 34.5t28 30l9 12l43 -31q-4 -7 -11.5 -18.5t-35 -40.5t-58 -51.5t-81 -41t-104.5 -18.5 q-172 0 -267.5 95t-95.5 274z" />
<glyph unicode="&#xaa;" horiz-adv-x="856" d="M106 850q0 36 11 64t28.5 46.5t47 32t58.5 21t71.5 12t77 5.5t83.5 1l2 103q2 56 -15.5 80t-68.5 24q-28 0 -49.5 -9.5t-27.5 -23.5q24 -18 24 -55t-29.5 -61.5t-74.5 -24.5q-48 0 -74.5 26t-26.5 66q0 70 77.5 110t205.5 40q67 0 114 -14t73 -36t39.5 -59.5t16.5 -74 t1 -89.5l-6 -213q-3 -47 32 -47q18 0 32.5 11t19.5 21l6 11l63 -26q-1 -5 -4.5 -13t-17 -28t-31.5 -35.5t-51 -28t-74 -12.5q-119 0 -150 84q-63 -84 -192 -84q-37 0 -69 8.5t-60.5 27.5t-45 55t-16.5 85zM301 864q0 -44 21 -66t55 -22t64.5 23t35.5 78l4 86 q-105 0 -142.5 -23t-37.5 -76z" />
<glyph unicode="&#xab;" horiz-adv-x="1169" d="M117 471q0 44 24 78.5t78 66.5q83 57 171 129t134 115l47 43l50 -41q-16 -26 -43.5 -69t-102.5 -147t-139 -173v-4q64 -69 135 -166.5t111 -160.5l39 -62l-50 -41q-166 158 -352 287q-54 32 -78 66.5t-24 78.5zM571 471q0 44 24.5 78.5t78.5 66.5q83 57 171 129t135 115 l46 43l49 -41q-16 -26 -43.5 -69t-102 -147t-138.5 -173v-4q64 -69 135 -166.5t110 -160.5l39 -62l-49 -41q-166 158 -352 287q-54 32 -78.5 66.5t-24.5 78.5z" />
<glyph unicode="&#xac;" horiz-adv-x="1198" d="M106 653v99h977v-553h-102v454h-875z" />
<glyph unicode="&#xad;" horiz-adv-x="765" d="M82 446v148h602v-148h-602z" />
<glyph unicode="&#xae;" horiz-adv-x="874" d="M61 954q0 111 55 198.5t140.5 132t181.5 44.5q99 0 183 -40.5t138 -124t54 -195.5q0 -166 -112.5 -270.5t-262.5 -104.5q-99 0 -183.5 40.5t-139 124t-54.5 195.5zM158 961q0 -140 78.5 -224t201.5 -84q124 0 203.5 85t79.5 225t-79.5 223.5t-203.5 83.5 q-123 0 -201.5 -84t-78.5 -225zM274 805v35l48 4v258h-43v41q8 0 34 -1t45 -1q9 0 42.5 1t62.5 1q125 0 125 -80q0 -56 -82 -82v-6q27 -7 38 -11.5t23.5 -13.5t16.5 -22.5t4 -36.5q0 -32 7.5 -41.5t33.5 -9.5v-37h-35q-37 0 -60 6t-32 19.5t-11 24.5t-2 32q0 27 -2 39 t-12.5 20t-32.5 8h-39v-108l48 -4v-35q-17 0 -46 1t-40 1t-43 -1t-48 -1zM403 997h37q60 0 60 58q0 47 -56 47h-41v-105z" />
<glyph unicode="&#xaf;" horiz-adv-x="1114" d="M221 1217v133h672v-133h-672z" />
<glyph unicode="&#xb0;" horiz-adv-x="839" d="M55 1124q0 151 107 240.5t256 89.5q101 0 181 -33.5t130.5 -106.5t50.5 -177q0 -154 -104.5 -242t-257.5 -88q-155 0 -259 81.5t-104 235.5zM260 1130q0 -126 40.5 -192t117.5 -66q157 0 157 258q0 127 -39.5 193t-117.5 66q-77 0 -117.5 -66.5t-40.5 -192.5z" />
<glyph unicode="&#xb1;" horiz-adv-x="1187" d="M113 82v98h962v-98h-962zM113 737v99h430v432h102v-432h430v-99h-430v-432h-102v432h-430z" />
<glyph unicode="&#xb2;" horiz-adv-x="667" d="M55 877v69q177 142 264 235.5t87 161.5q0 49 -29.5 73t-69.5 24q-38 0 -64 -13.5t-34 -33.5q2 -1 6 -2.5t14.5 -8.5t18 -15.5t14 -24.5t6.5 -35q0 -42 -28.5 -68.5t-67.5 -26.5q-50 0 -78 32t-28 79q0 83 80 134.5t182 51.5q112 0 182 -44t70 -124q0 -28 -12.5 -54.5 t-30 -48t-58 -53t-75 -54.5t-101.5 -68q-27 -18 -41 -27v-2q7 0 58 2t102 2q48 0 72 12.5t28 28.5l4 19h70v-224q-39 0 -126.5 2.5t-137.5 2.5q-47 0 -133.5 -1t-143.5 -1z" />
<glyph unicode="&#xb3;" horiz-adv-x="655" d="M51 1006q0 45 31 76.5t74 31.5q39 0 65.5 -22.5t26.5 -63.5q0 -20 -9 -36t-17 -22l-9 -7q0 -7 5 -14.5t21 -15t40 -7.5q59 0 95 36t36 95q0 47 -25.5 69.5t-60.5 22.5q-16 0 -29.5 -4t-18.5 -8l-6 -4l-45 55l144 149v2q-1 0 -19.5 -0.5t-45 -1t-46.5 -0.5q-47 0 -72 -14 t-34 -49l-5 -19h-69l12 224q40 0 101 -2t116 -2q41 0 122 1t134 1v-70l-190 -172l2 -4q12 6 45 6q69 0 124.5 -39t55.5 -119q0 -108 -94.5 -165.5t-235.5 -57.5q-102 0 -160.5 39t-58.5 111z" />
<glyph unicode="&#xb4;" d="M291 1102l180 323q49 105 145 105q47 0 80 -32t33 -79q0 -83 -90 -141l-311 -211z" />
<glyph unicode="&#xb6;" horiz-adv-x="1275" d="M104 928q0 89 37 160.5t98.5 115.5t138 67t159.5 23q86 0 206 -2t168 -2q20 0 126 2t157 2v-69l-176 -4v-1147l176 -8v-70q-36 0 -157.5 4t-205.5 4q-74 0 -229.5 -4t-191.5 -4v70l245 8v461h-24q-116 0 -208.5 21t-165.5 66t-113 122.5t-40 183.5zM743 74h187v1149h-187 v-1149z" />
<glyph unicode="&#xb7;" horiz-adv-x="591" d="M123 563q0 75 50.5 123.5t125.5 48.5q74 0 123 -48.5t49 -123.5q0 -74 -49 -122t-123 -48q-76 0 -126 48t-50 122z" />
<glyph unicode="&#xb8;" d="M315 -424l37 47q55 -42 117.5 -46t104.5 31t42 97q0 59 -39.5 83t-107.5 15l43 213h72l-21 -135q36 2 72 1.5t69.5 -13t59.5 -32.5t41.5 -56t15.5 -84q0 -61 -35 -111t-92.5 -76.5t-123.5 -33t-135 19t-120 80.5z" />
<glyph unicode="&#xb9;" horiz-adv-x="567" d="M31 1382l18 74q82 -16 167.5 -2t121.5 53l72 -20q-2 -159 -2 -537l112 -6v-70q-38 0 -110.5 2.5t-100.5 2.5t-113.5 -2.5t-117.5 -2.5v70l137 6l2 404q-100 -3 -186 28z" />
<glyph unicode="&#xba;" horiz-adv-x="776" d="M66 991q0 80 26.5 144t71.5 104.5t102.5 62t122.5 21.5q140 0 231 -80t91 -239t-92 -245.5t-230 -86.5q-67 0 -124 18.5t-102.5 56t-71 100t-25.5 144.5zM266 997q0 -130 29 -193t94 -63t92 62t27 194t-27 194t-92 62t-94 -63t-29 -193z" />
<glyph unicode="&#xbb;" horiz-adv-x="1169" d="M96 80q16 26 43.5 69t102.5 147t139 173v4q-64 69 -135 166.5t-110 160.5l-40 62l49 41q167 -158 351 -287q55 -32 79.5 -66.5t24.5 -78.5t-24.5 -78.5t-79.5 -66.5q-82 -57 -169.5 -129t-134.5 -115l-47 -43zM551 80q16 26 43.5 69t102.5 147t139 173v4 q-64 69 -135 166.5t-111 160.5l-39 62l49 41q166 -158 350 -287q55 -33 80 -67t25 -78t-25 -78t-80 -67q-82 -57 -169.5 -129t-134.5 -115l-46 -43z" />
<glyph unicode="&#xbc;" horiz-adv-x="1335" d="M76 1196l18 74q82 -16 167.5 -2t121.5 53l72 -21q-2 -158 -2 -536l112 -6v-70q-38 0 -110.5 2t-100.5 2t-113.5 -2t-117.5 -2v70l137 6l2 403q-100 -2 -186 29zM150 0l1071 1362l63 -49l-1071 -1364zM666 219q67 63 111.5 123t82.5 133t43 80q48 74 115 74q39 0 62.5 -25 t23.5 -61q0 -44 -35 -82q-28 -28 -133.5 -103t-167.5 -127v-2h211v62q38 15 69.5 34.5t45 31.5t16.5 18h68v-146h112v-69h-112v-88l112 -6v-70q-28 0 -91.5 2t-104.5 2q-40 0 -122 -2t-124 -2v70l131 6v88h-287z" />
<glyph unicode="&#xbd;" horiz-adv-x="1374" d="M76 1196l18 74q82 -16 167.5 -2t121.5 53l72 -21q-2 -158 -2 -536l112 -6v-70q-38 0 -110.5 2t-100.5 2t-113.5 -2t-117.5 -2v70l137 6l2 403q-100 -2 -186 29zM129 0l1071 1362l64 -49l-1071 -1364zM725 -2v70q177 141 263.5 235t86.5 162q0 49 -29 72.5t-69 23.5 q-38 0 -64 -13.5t-34 -33.5q2 -1 6 -2.5t14.5 -8.5t18 -15.5t14 -24.5t6.5 -35q0 -42 -28.5 -68t-67.5 -26q-50 0 -78.5 31.5t-28.5 78.5q0 83 80 135t182 52q112 0 182 -44t70 -124q0 -35 -15 -65t-57 -66.5t-82 -64.5t-125 -84q-25 -16 -38 -25v-2q7 0 58 2t102 2 q48 0 72 12.5t28 28.5l4 18h70v-223q-39 0 -127 2t-138 2q-47 0 -133 -1t-143 -1z" />
<glyph unicode="&#xbe;" horiz-adv-x="1316" d="M76 821q0 46 30.5 77.5t73.5 31.5q39 0 65.5 -22.5t26.5 -63.5q0 -20 -8.5 -36.5t-17.5 -23.5l-8 -6q0 -7 4.5 -14.5t20.5 -15t40 -7.5q59 0 95 36.5t36 94.5q0 47 -25.5 70t-60.5 23q-16 0 -29.5 -4.5t-18.5 -8.5l-5 -4l-45 56l143 149v2q-1 0 -19 -0.5t-44.5 -1 t-46.5 -0.5q-47 0 -72.5 -14t-34.5 -49l-4 -19h-70l13 223q39 0 101 -2t116 -2q41 0 122 1t134 1v-69l-191 -172l2 -4q12 6 45 6q43 0 82 -14t69 -51.5t30 -92.5q0 -108 -94.5 -165.5t-235.5 -57.5q-102 0 -160.5 38.5t-58.5 110.5zM143 0l1071 1362l64 -49l-1071 -1364z M649 219q67 63 111.5 123t83.5 133.5t43 79.5q48 74 114 74q39 0 62.5 -25t23.5 -61q0 -45 -34 -82q-28 -28 -133.5 -103t-167.5 -127v-2h211v62q38 15 69.5 34.5t45 31.5t16.5 18h67v-146h113v-69h-113v-88l113 -6v-70q-28 0 -92 2t-105 2q-39 0 -121 -2t-125 -2v70l132 6 v88h-287z" />
<glyph unicode="&#xbf;" horiz-adv-x="978" d="M80 272q0 72 28 133t71.5 102t104.5 74t118.5 52t121.5 33l13 180h73l13 -234q-105 -56 -175.5 -149.5t-70.5 -216.5q0 -119 47 -178.5t127 -59.5q87 0 127.5 35t40.5 72q-4 1 -10 3t-21.5 11.5t-27.5 22t-21.5 36.5t-9.5 54q0 57 38.5 94t98.5 37q67 0 111.5 -46.5 t44.5 -121.5q0 -110 -102.5 -189t-289.5 -79q-66 0 -126 9t-120.5 32.5t-104.5 60t-71.5 96.5t-27.5 137zM395 1165q0 71 48.5 116.5t121.5 45.5q75 0 125.5 -45.5t50.5 -116.5t-51 -117.5t-125 -46.5q-73 0 -121.5 46.5t-48.5 117.5z" />
<glyph unicode="&#xc0;" horiz-adv-x="1411" d="M-12 -4v70q50 0 81 6.5t65 30t62.5 72t59.5 128.5l383 1004h164l448 -1231l160 -10v-70q-60 0 -159.5 4t-137.5 4q-52 0 -175.5 -4t-195.5 -4v70l199 10l-133 377h-406l-61 -162q-48 -121 -1.5 -173t187.5 -52v-70h-49q-33 0 -121.5 4t-132.5 4q-30 0 -92 -4t-102 -4h-43 zM420 1653q0 48 33.5 81t83.5 33q73 0 127 -63l239 -260l-29 -43l-335 112q-50 13 -84.5 49t-34.5 91zM432 528h350l-168 471h-4z" />
<glyph unicode="&#xc1;" horiz-adv-x="1411" d="M-12 -4v70q50 0 81 6.5t65 30t62.5 72t59.5 128.5l383 1004h164l448 -1231l160 -10v-70q-60 0 -159.5 4t-137.5 4q-52 0 -175.5 -4t-195.5 -4v70l199 10l-133 377h-406l-61 -162q-48 -121 -1.5 -173t187.5 -52v-70h-49q-33 0 -121.5 4t-132.5 4q-30 0 -92 -4t-102 -4h-43 zM432 528h350l-168 471h-4zM532 1444l238 260q54 63 127 63q52 0 85.5 -33t33.5 -81q0 -55 -34.5 -91t-84.5 -49l-336 -112z" />
<glyph unicode="&#xc2;" horiz-adv-x="1411" d="M-12 -4v70q50 0 81 6.5t65 30t62.5 72t59.5 128.5l383 1004h164l448 -1231l160 -10v-70q-60 0 -159.5 4t-137.5 4q-52 0 -175.5 -4t-195.5 -4v70l199 10l-133 377h-406l-61 -162q-48 -121 -1.5 -173t187.5 -52v-70h-49q-33 0 -121.5 4t-132.5 4q-30 0 -92 -4t-102 -4h-43 zM354 1468q101 86 203 211q49 68 79 91.5t83 23.5t83 -23.5t79 -91.5q45 -56 95 -108.5t78 -77.5l27 -25l-28 -43q-176 60 -332 154h-4q-70 -42 -153.5 -80.5t-131.5 -56.5l-49 -17zM432 528h350l-168 471h-4z" />
<glyph unicode="&#xc3;" horiz-adv-x="1411" d="M-12 -4v70q50 0 81 6.5t65 30t62.5 72t59.5 128.5l383 1004h164l448 -1231l160 -10v-70q-60 0 -159.5 4t-137.5 4q-52 0 -175.5 -4t-195.5 -4v70l199 10l-133 377h-406l-61 -162q-48 -121 -1.5 -173t187.5 -52v-70h-49q-33 0 -121.5 4t-132.5 4q-30 0 -92 -4t-102 -4h-43 zM377 1452q34 135 88 198.5t137 63.5q52 0 170.5 -42t165.5 -42q80 0 117 94l61 -22q-34 -136 -87 -198t-136 -62q-54 0 -173.5 42t-164.5 42q-41 0 -69 -22.5t-48 -73.5zM432 528h350l-168 471h-4z" />
<glyph unicode="&#xc4;" horiz-adv-x="1411" d="M-12 -4v70q50 0 81 6.5t65 30t62.5 72t59.5 128.5l383 1004h164l448 -1231l160 -10v-70q-60 0 -159.5 4t-137.5 4q-52 0 -175.5 -4t-195.5 -4v70l199 10l-133 377h-406l-61 -162q-48 -121 -1.5 -173t187.5 -52v-70h-49q-33 0 -121.5 4t-132.5 4q-30 0 -92 -4t-102 -4h-43 zM338 1565q0 66 42.5 107.5t106.5 41.5q63 0 105.5 -41.5t42.5 -107.5t-42.5 -108t-105.5 -42q-64 0 -106.5 41.5t-42.5 108.5zM432 528h350l-168 471h-4zM801 1565q0 66 42.5 107.5t106.5 41.5q63 0 105.5 -41.5t42.5 -107.5t-42.5 -108t-105.5 -42q-64 0 -106.5 41.5 t-42.5 108.5z" />
<glyph unicode="&#xc5;" horiz-adv-x="1411" d="M-12 -4v70q50 0 81 6.5t65 30t62.5 72t59.5 128.5l377 987q-93 19 -145 77.5t-52 145.5q0 103 80.5 167.5t200.5 64.5q124 0 201 -63.5t77 -168.5q0 -82 -50 -140.5t-136 -80.5l442 -1216l160 -10v-70q-60 0 -159.5 4t-137.5 4q-52 0 -175.5 -4t-195.5 -4v70l199 10 l-133 377h-406l-61 -162q-48 -121 -1.5 -173t187.5 -52v-70h-49q-33 0 -121.5 4t-132.5 4q-30 0 -92 -4t-102 -4h-43zM432 528h350l-168 471h-4zM606 1513q0 -80 29.5 -125t81.5 -45q51 0 79.5 44.5t28.5 125.5q0 79 -28.5 124.5t-79.5 45.5q-52 0 -81.5 -44t-29.5 -126z " />
<glyph unicode="&#xc6;" horiz-adv-x="1867" d="M-14 -4v70q89 0 156.5 52.5t129.5 184.5l428 916l-159 6v69q29 0 240 -4t335 -4q101 0 300.5 4t262.5 4l21 -422h-74l-14 70q-9 44 -33 90t-61.5 88.5t-92.5 69.5t-118 27h-191v-551l154 8q51 4 88 46t50 78.5t13 53.5h72v-430h-72q0 10 -7 33.5t-23 57t-53 58t-87 25.5 h-135v-522h178q147 0 247.5 98.5t127.5 237.5l6 34h74l-12 -448q-81 0 -263 4t-294 4q-148 0 -316.5 -4t-197.5 -4v70l157 8v487h-325l-117 -252q-59 -131 -22 -187t173 -56v-70h-59q-31 0 -118.5 4t-129.5 4q-26 0 -89 -4t-103 -4h-47zM532 637h291v493q0 54 -24 54 q-12 0 -56 -92z" />
<glyph unicode="&#xc7;" horiz-adv-x="1280" d="M98 631q0 153 39.5 275t103 198.5t150.5 127t176 71t185 20.5q73 0 132 -14.5t93.5 -28.5t48.5 -14q19 0 34.5 7.5t21.5 14.5l5 8h74q0 -44 -2 -108t-2 -105q0 -67 2 -140.5t2 -111.5h-78q-10 49 -23 95t-40.5 108t-61 106.5t-86 76.5t-114.5 32q-111 0 -189 -81.5 t-112.5 -206.5t-34.5 -279q0 -129 20.5 -232.5t55.5 -172.5t83.5 -115.5t102.5 -67t115 -20.5q51 0 98.5 11.5t81.5 30t63.5 41t48.5 45.5t32.5 41.5t19.5 30.5l6 11l63 -35q-2 -6 -7 -16.5t-23.5 -41t-42 -58.5t-65 -62t-89.5 -58.5t-117.5 -41.5t-148.5 -17l-10 -74 q36 2 72 1.5t69.5 -13t59.5 -32.5t41.5 -56t15.5 -84q0 -61 -35 -111t-92.5 -76.5t-123.5 -33t-135 19t-120 80.5l37 47q55 -42 117.5 -46t104.5 31t42 97q0 59 -40 83t-108 15l31 154q-122 10 -220.5 55t-172.5 125.5t-114 206t-40 287.5z" />
<glyph unicode="&#xc8;" horiz-adv-x="1302" d="M86 -4v70l164 8v1143l-164 8v69q30 0 181.5 -4t273.5 -4q101 0 301.5 4t263.5 4l20 -420h-73l-15 72q-5 28 -19.5 61.5t-41.5 71t-60.5 68t-82 50.5t-101.5 20h-186v-512l147 6q40 3 72 22t48.5 44.5t25 47t8.5 33.5h74v-430h-74q0 14 -8 43t-25.5 66.5t-53.5 66 t-83 31.5h-131v-561h176q79 0 148.5 33.5t115 85.5t73.5 108.5t36 108.5l6 36h74l-13 -450q-81 0 -264 4t-295 4q-151 0 -321.5 -4t-196.5 -4zM358 1653q0 48 33.5 81t83.5 33q73 0 127 -63l240 -260l-29 -43l-336 112q-50 13 -84.5 49t-34.5 91z" />
<glyph unicode="&#xc9;" horiz-adv-x="1302" d="M86 -4v70l164 8v1143l-164 8v69q30 0 181.5 -4t273.5 -4q101 0 301.5 4t263.5 4l20 -420h-73l-15 72q-5 28 -19.5 61.5t-41.5 71t-60.5 68t-82 50.5t-101.5 20h-186v-512l147 6q40 3 72 22t48.5 44.5t25 47t8.5 33.5h74v-430h-74q0 14 -8 43t-25.5 66.5t-53.5 66 t-83 31.5h-131v-561h176q79 0 148.5 33.5t115 85.5t73.5 108.5t36 108.5l6 36h74l-13 -450q-81 0 -264 4t-295 4q-151 0 -321.5 -4t-196.5 -4zM471 1444l238 260q54 63 127 63q52 0 85 -33t33 -81q0 -55 -34 -91t-84 -49l-336 -112z" />
<glyph unicode="&#xca;" horiz-adv-x="1302" d="M86 -4v70l164 8v1143l-164 8v69q30 0 181.5 -4t273.5 -4q101 0 301.5 4t263.5 4l20 -420h-73l-15 72q-5 28 -19.5 61.5t-41.5 71t-60.5 68t-82 50.5t-101.5 20h-186v-512l147 6q40 3 72 22t48.5 44.5t25 47t8.5 33.5h74v-430h-74q0 14 -8 43t-25.5 66.5t-53.5 66 t-83 31.5h-131v-561h176q79 0 148.5 33.5t115 85.5t73.5 108.5t36 108.5l6 36h74l-13 -450q-81 0 -264 4t-295 4q-151 0 -321.5 -4t-196.5 -4zM293 1468q101 86 203 211q49 69 78.5 92t82.5 23t83 -23.5t79 -91.5q45 -56 95.5 -108.5t77.5 -77.5l28 -25l-29 -43 q-176 60 -332 154h-4q-70 -42 -153.5 -80.5t-131.5 -56.5l-48 -17z" />
<glyph unicode="&#xcb;" horiz-adv-x="1302" d="M86 -4v70l164 8v1143l-164 8v69q30 0 181.5 -4t273.5 -4q101 0 301.5 4t263.5 4l20 -420h-73l-15 72q-5 28 -19.5 61.5t-41.5 71t-60.5 68t-82 50.5t-101.5 20h-186v-512l147 6q40 3 72 22t48.5 44.5t25 47t8.5 33.5h74v-430h-74q0 14 -8 43t-25.5 66.5t-53.5 66 t-83 31.5h-131v-561h176q79 0 148.5 33.5t115 85.5t73.5 108.5t36 108.5l6 36h74l-13 -450q-81 0 -264 4t-295 4q-151 0 -321.5 -4t-196.5 -4zM276 1565q0 66 43 107.5t107 41.5q63 0 105 -41.5t42 -107.5t-42 -108t-105 -42q-64 0 -107 42t-43 108zM739 1565q0 66 43 107.5 t107 41.5q63 0 105 -41.5t42 -107.5t-42 -108t-105 -42q-64 0 -107 42t-43 108z" />
<glyph unicode="&#xcc;" horiz-adv-x="786" d="M86 -4v70l160 8v1143l-160 8v69q46 0 162 -4t145 -4t146 4t163 4v-69l-159 -8v-1143l159 -8v-70q-46 0 -163 4t-146 4t-145 -4t-162 -4zM100 1653q0 48 33.5 81t83.5 33q73 0 127 -63l240 -260l-29 -43l-336 112q-50 13 -84.5 49t-34.5 91z" />
<glyph unicode="&#xcd;" horiz-adv-x="786" d="M86 -4v70l160 8v1143l-160 8v69q46 0 162 -4t145 -4t146 4t163 4v-69l-159 -8v-1143l159 -8v-70q-46 0 -163 4t-146 4t-145 -4t-162 -4zM213 1444l238 260q54 63 127 63q52 0 85 -33t33 -81q0 -55 -34 -91t-84 -49l-336 -112z" />
<glyph unicode="&#xce;" horiz-adv-x="786" d="M33 1468q101 86 203 211q49 69 78.5 92t82.5 23t83 -23.5t79 -91.5q45 -56 95.5 -108.5t77.5 -77.5l28 -25l-29 -43q-176 60 -332 154h-4q-70 -42 -153.5 -80.5t-131.5 -56.5l-49 -17zM86 -4v70l160 8v1143l-160 8v69q46 0 162 -4t145 -4t146 4t163 4v-69l-159 -8v-1143 l159 -8v-70q-46 0 -163 4t-146 4t-145 -4t-162 -4z" />
<glyph unicode="&#xcf;" horiz-adv-x="786" d="M16 1565q0 66 43 107.5t107 41.5q63 0 105 -41.5t42 -107.5t-42 -108t-105 -42q-64 0 -107 42t-43 108zM86 -4v70l160 8v1143l-160 8v69q46 0 162 -4t145 -4t146 4t163 4v-69l-159 -8v-1143l159 -8v-70q-46 0 -163 4t-146 4t-145 -4t-162 -4zM479 1565q0 66 43 107.5 t107 41.5q63 0 105 -41.5t42 -107.5t-42 -108t-105 -42q-64 0 -107 42t-43 108z" />
<glyph unicode="&#xd0;" horiz-adv-x="1495" d="M86 -4v70l164 6v559h-164v76h164v512l-164 6v69q46 0 154 -2t145 -2q35 0 160.5 1t177.5 1q318 0 496 -152t178 -464q0 -151 -37.5 -274t-111.5 -214.5t-192.5 -141.5t-273.5 -50q-82 0 -225 2t-172 2q-34 0 -143 -2t-156 -2zM547 66h174q76 0 136 24.5t98.5 70.5 t64.5 101.5t39.5 130t18.5 142t5 149.5q0 99 -11 178t-38.5 148t-71.5 115.5t-111.5 73t-156.5 26.5h-147v-518h266v-76h-266v-565z" />
<glyph unicode="&#xd1;" horiz-adv-x="1437" d="M51 -4v70q47 0 77.5 7t60.5 29.5t44.5 71.5t14.5 125v725q0 54 -11.5 92.5t-28.5 59.5t-44.5 33t-51 15t-57.5 3v67l434 -8l639 -952h2v649q0 63 -10 107t-26.5 70.5t-45.5 41t-59.5 19t-75.5 4.5v69q53 0 132 -4t118 -4t115 4t129 4v-69q-46 0 -77.5 -8.5t-60 -32.5 t-43 -74t-14.5 -127v-967l-241 -18l-639 969h-2v-668q0 -77 13 -125t43.5 -71t65 -30t93.5 -7v-70q-53 0 -132 4t-118 4t-115 -4t-129 -4zM428 1452q34 135 88 198.5t137 63.5q52 0 170.5 -42t165.5 -42q80 0 117 94l61 -22q-34 -136 -87 -198t-136 -62q-55 0 -173.5 42 t-164.5 42q-41 0 -69 -22.5t-48 -73.5z" />
<glyph unicode="&#xd2;" horiz-adv-x="1507" d="M98 633q0 146 39.5 265.5t104.5 197.5t151.5 130.5t176.5 75.5t184 23q96 0 185.5 -20.5t176 -70.5t150 -125t102.5 -192.5t39 -263.5q0 -147 -38.5 -267t-102 -198t-149.5 -131.5t-176.5 -76.5t-186.5 -23t-185.5 21t-176.5 71.5t-151 125.5t-103.5 193t-39.5 265z M434 643q0 -612 320 -612q156 0 237.5 153t81.5 459q0 305 -81.5 456.5t-237.5 151.5q-155 0 -237.5 -152t-82.5 -456zM461 1653q0 48 33.5 81t83.5 33q73 0 127 -63l239 -260l-29 -43l-335 112q-50 13 -84.5 49t-34.5 91z" />
<glyph unicode="&#xd3;" horiz-adv-x="1507" d="M98 633q0 146 39.5 265.5t104.5 197.5t151.5 130.5t176.5 75.5t184 23q96 0 185.5 -20.5t176 -70.5t150 -125t102.5 -192.5t39 -263.5q0 -147 -38.5 -267t-102 -198t-149.5 -131.5t-176.5 -76.5t-186.5 -23t-185.5 21t-176.5 71.5t-151 125.5t-103.5 193t-39.5 265z M434 643q0 -612 320 -612q156 0 237.5 153t81.5 459q0 305 -81.5 456.5t-237.5 151.5q-155 0 -237.5 -152t-82.5 -456zM571 1444l238 260q54 63 127 63q52 0 85.5 -33t33.5 -81q0 -55 -34.5 -91t-84.5 -49l-336 -112z" />
<glyph unicode="&#xd4;" horiz-adv-x="1507" d="M98 633q0 146 39.5 265.5t104.5 197.5t151.5 130.5t176.5 75.5t184 23q96 0 185.5 -20.5t176 -70.5t150 -125t102.5 -192.5t39 -263.5q0 -147 -38.5 -267t-102 -198t-149.5 -131.5t-176.5 -76.5t-186.5 -23t-185.5 21t-176.5 71.5t-151 125.5t-103.5 193t-39.5 265z M393 1468q101 86 203 211q49 68 79 91.5t83 23.5t83 -23.5t79 -91.5q45 -56 95 -108.5t77 -77.5l28 -25l-28 -43q-176 60 -332 154h-4q-70 -42 -153.5 -80.5t-132.5 -56.5l-48 -17zM434 643q0 -612 320 -612q156 0 237.5 153t81.5 459q0 305 -81.5 456.5t-237.5 151.5 q-155 0 -237.5 -152t-82.5 -456z" />
<glyph unicode="&#xd5;" horiz-adv-x="1507" d="M98 633q0 146 39.5 265.5t104.5 197.5t151.5 130.5t176.5 75.5t184 23q96 0 185.5 -20.5t176 -70.5t150 -125t102.5 -192.5t39 -263.5q0 -147 -38.5 -267t-102 -198t-149.5 -131.5t-176.5 -76.5t-186.5 -23t-185.5 21t-176.5 71.5t-151 125.5t-103.5 193t-39.5 265z M422 1452q34 135 88 198.5t137 63.5q52 0 170.5 -42t165.5 -42q80 0 117 94l61 -22q-34 -136 -87 -198t-136 -62q-55 0 -174 42t-164 42q-41 0 -69 -22.5t-48 -73.5zM434 643q0 -612 320 -612q156 0 237.5 153t81.5 459q0 305 -81.5 456.5t-237.5 151.5q-155 0 -237.5 -152 t-82.5 -456z" />
<glyph unicode="&#xd6;" horiz-adv-x="1507" d="M98 633q0 146 39.5 265.5t104.5 197.5t151.5 130.5t176.5 75.5t184 23q96 0 185.5 -20.5t176 -70.5t150 -125t102.5 -192.5t39 -263.5q0 -147 -38.5 -267t-102 -198t-149.5 -131.5t-176.5 -76.5t-186.5 -23t-185.5 21t-176.5 71.5t-151 125.5t-103.5 193t-39.5 265z M377 1565q0 66 42.5 107.5t106.5 41.5q63 0 105.5 -41.5t42.5 -107.5t-42.5 -108t-105.5 -42q-64 0 -106.5 41.5t-42.5 108.5zM434 643q0 -612 320 -612q156 0 237.5 153t81.5 459q0 305 -81.5 456.5t-237.5 151.5q-155 0 -237.5 -152t-82.5 -456zM840 1565q0 66 42.5 107.5 t106.5 41.5q63 0 105.5 -41.5t42.5 -107.5t-42.5 -108t-105.5 -42q-64 0 -106.5 41.5t-42.5 108.5z" />
<glyph unicode="&#xd7;" horiz-adv-x="1107" d="M109 82l364 391l-360 389l82 76l356 -383l356 383l82 -76l-362 -389l366 -391l-82 -78l-360 387l-361 -387z" />
<glyph unicode="&#xd8;" horiz-adv-x="1507" d="M98 633q0 146 39.5 265.5t104.5 197.5t151.5 130.5t176.5 75.5t184 23q120 0 217 -31l88 226l69 -25l-88 -223q79 -33 143.5 -84t115.5 -125.5t79.5 -179t28.5 -230.5q0 -147 -38.5 -267t-102 -198t-149.5 -131.5t-176.5 -76.5t-186.5 -23q-114 0 -215 29l-90 -228 l-70 27l88 225q-79 33 -143.5 84.5t-116.5 126.5t-80.5 180t-28.5 232zM434 643q0 -330 92 -483l402 1026q-71 65 -174 65q-155 0 -237.5 -152t-82.5 -456zM580 94q69 -63 174 -63q156 0 237.5 153t81.5 459q0 319 -92 475z" />
<glyph unicode="&#xd9;" horiz-adv-x="1380" d="M37 1223v69q46 0 167 -4t150 -4t141 4t158 4v-69l-147 -9v-655q0 -237 67.5 -345t214.5 -108q43 0 81 9.5t80.5 38t72.5 75t50 128t20 188.5v436q0 78 -14 127.5t-44 74t-64.5 32.5t-88.5 8v69q53 0 130 -4t115 -4t112 4t128 4v-69q-47 0 -78 -8.5t-59 -32.5t-41.5 -74 t-13.5 -127v-440q0 -568 -484 -568q-493 0 -493 498v743zM453 1653q0 48 33 81t83 33q73 0 127 -63l240 -260l-29 -43l-336 112q-50 13 -84 49t-34 91z" />
<glyph unicode="&#xda;" horiz-adv-x="1380" d="M37 1223v69q46 0 167 -4t150 -4t141 4t158 4v-69l-147 -9v-655q0 -237 67.5 -345t214.5 -108q43 0 81 9.5t80.5 38t72.5 75t50 128t20 188.5v436q0 78 -14 127.5t-44 74t-64.5 32.5t-88.5 8v69q53 0 130 -4t115 -4t112 4t128 4v-69q-47 0 -78 -8.5t-59 -32.5t-41.5 -74 t-13.5 -127v-440q0 -568 -484 -568q-493 0 -493 498v743zM565 1444l238 260q54 63 127 63q52 0 85.5 -33t33.5 -81q0 -55 -34.5 -91t-84.5 -49l-336 -112z" />
<glyph unicode="&#xdb;" horiz-adv-x="1380" d="M37 1223v69q46 0 167 -4t150 -4t141 4t158 4v-69l-147 -9v-655q0 -237 67.5 -345t214.5 -108q43 0 81 9.5t80.5 38t72.5 75t50 128t20 188.5v436q0 78 -14 127.5t-44 74t-64.5 32.5t-88.5 8v69q53 0 130 -4t115 -4t112 4t128 4v-69q-47 0 -78 -8.5t-59 -32.5t-41.5 -74 t-13.5 -127v-440q0 -568 -484 -568q-493 0 -493 498v743zM385 1468q101 86 203 211q49 68 79 91.5t83 23.5t82.5 -23t78.5 -92q45 -56 95.5 -108.5t77.5 -77.5l28 -25l-29 -43q-175 60 -331 154h-4q-70 -42 -153.5 -80.5t-132.5 -56.5l-48 -17z" />
<glyph unicode="&#xdc;" horiz-adv-x="1380" d="M37 1223v69q46 0 167 -4t150 -4t141 4t158 4v-69l-147 -9v-655q0 -237 67.5 -345t214.5 -108q43 0 81 9.5t80.5 38t72.5 75t50 128t20 188.5v436q0 78 -14 127.5t-44 74t-64.5 32.5t-88.5 8v69q53 0 130 -4t115 -4t112 4t128 4v-69q-47 0 -78 -8.5t-59 -32.5t-41.5 -74 t-13.5 -127v-440q0 -568 -484 -568q-493 0 -493 498v743zM369 1565q0 66 42.5 107.5t106.5 41.5q63 0 105.5 -41.5t42.5 -107.5t-42.5 -108t-105.5 -42q-64 0 -106.5 41.5t-42.5 108.5zM831 1565q0 66 43 107.5t107 41.5q63 0 105 -41.5t42 -107.5t-42 -108t-105 -42 q-64 0 -107 42t-43 108z" />
<glyph unicode="&#xdd;" horiz-adv-x="1318" d="M-2 1225v69q58 0 154 -4t147 -4q46 0 154 4t180 4v-69l-162 -11l291 -561h8q28 68 170 334q64 127 33 182.5t-158 55.5v69q51 0 138.5 -4t138.5 -4q37 0 108 4t125 4v-69q-96 0 -166 -54t-137 -190q-138 -254 -168 -328q-49 -118 -49 -235v-344l162 -8v-70 q-46 0 -163.5 4t-146.5 4t-146 -4t-163 -4v70l162 8v448l-371 692zM547 1444l237 260q54 63 127 63q52 0 85.5 -33t33.5 -81q0 -55 -34.5 -91t-84.5 -49l-336 -112z" />
<glyph unicode="&#xde;" horiz-adv-x="1275" d="M86 -4v70l160 8v1143l-160 8v69q46 0 162 -4t145 -4t146 4t163 4v-69l-159 -8v-201h149q112 2 202 -14.5t163 -54t113 -105.5t40 -162q0 -99 -36.5 -173t-104 -118t-155.5 -65t-199 -21h-172v-229l159 -8v-70q-46 0 -163 4t-146 4t-145 -4t-162 -4zM543 369h129 q55 0 97 17t67.5 45t41 69t21.5 83.5t6 94.5q0 272 -256 272h-106v-581z" />
<glyph unicode="&#xdf;" horiz-adv-x="1312" d="M57 4v70l140 4v778h-140v80q103 0 129.5 11t30.5 65q10 149 84 253.5t190 153.5t265 49q74 0 143 -15t128 -45t94.5 -81.5t35.5 -118.5q0 -50 -22 -91t-54.5 -66t-71 -50.5t-71 -46t-54.5 -51t-22 -67.5q0 -19 7.5 -37t15.5 -30.5t29.5 -31t32.5 -27t43 -31t44 -30.5 q97 -68 131 -102q97 -95 97 -236q0 -156 -101 -251t-264 -95q-149 0 -228 58t-79 155q0 66 43.5 108t107.5 42q56 0 92.5 -35.5t36.5 -93.5q0 -22 -7 -42t-17 -32.5t-20.5 -21.5t-17.5 -13l-7 -4q2 -19 26 -35t64 -16q73 0 119.5 53t46.5 135q0 78 -42.5 128.5t-140.5 113.5 q-7 5 -33 22.5t-34 22.5t-30 21t-30 23.5t-25.5 23t-24 26t-17.5 26.5t-15.5 30.5t-8 32t-3.5 36.5q0 45 14.5 82.5t37.5 64t51 50.5l56 48t51 50t37.5 63t14.5 82q0 40 -11 79.5t-33 75.5t-61 58.5t-89 22.5q-284 0 -270 -553l4 -184v-684z" />
<glyph unicode="&#xe0;" horiz-adv-x="1118" d="M76 240q0 55 19 99.5t49 74.5t77.5 51.5t95.5 33.5t112 19t117.5 8.5t121.5 1.5v101q2 68 -1.5 112.5t-17.5 83.5t-44.5 57.5t-78.5 18.5q-67 0 -106 -24t-51 -48q5 -3 12.5 -9t20 -30t12.5 -55q0 -55 -38 -89t-100 -34q-61 0 -99 35t-38 96q0 105 117.5 166.5 t290.5 61.5q75 0 134.5 -12t99.5 -32t69 -51.5t45 -63.5t25 -74.5t11 -79t1 -83.5l-10 -387q-2 -49 14 -77.5t49 -28.5q26 0 46 22t27 44l7 22l68 -16q-1 -8 -4.5 -20.5t-19.5 -44.5t-40 -57t-70.5 -45t-105.5 -20q-79 0 -136.5 35.5t-82.5 108.5h-4q-80 -152 -281 -152 q-58 0 -110 14.5t-99.5 45t-75.5 87.5t-28 134zM279 1415q0 52 33 84.5t81 32.5q90 0 146 -107l182 -323l-37 -35l-313 211q-92 59 -92 137zM352 266q0 -182 133 -182q66 0 118.5 57t55.5 160l5 158q-124 2 -193.5 -20.5t-94 -63t-24.5 -109.5z" />
<glyph unicode="&#xe1;" horiz-adv-x="1118" d="M76 240q0 55 19 99.5t49 74.5t77.5 51.5t95.5 33.5t112 19t117.5 8.5t121.5 1.5v101q2 68 -1.5 112.5t-17.5 83.5t-44.5 57.5t-78.5 18.5q-67 0 -106 -24t-51 -48q5 -3 12.5 -9t20 -30t12.5 -55q0 -55 -38 -89t-100 -34q-61 0 -99 35t-38 96q0 105 117.5 166.5 t290.5 61.5q75 0 134.5 -12t99.5 -32t69 -51.5t45 -63.5t25 -74.5t11 -79t1 -83.5l-10 -387q-2 -49 14 -77.5t49 -28.5q26 0 46 22t27 44l7 22l68 -16q-1 -8 -4.5 -20.5t-19.5 -44.5t-40 -57t-70.5 -45t-105.5 -20q-79 0 -136.5 35.5t-82.5 108.5h-4q-80 -152 -281 -152 q-58 0 -110 14.5t-99.5 45t-75.5 87.5t-28 134zM352 266q0 -182 133 -182q66 0 118.5 57t55.5 160l5 158q-124 2 -193.5 -20.5t-94 -63t-24.5 -109.5zM410 1102l180 323q49 105 145 105q47 0 80 -32t33 -79q0 -83 -90 -141l-312 -211z" />
<glyph unicode="&#xe2;" horiz-adv-x="1118" d="M76 240q0 55 19 99.5t49 74.5t77.5 51.5t95.5 33.5t112 19t117.5 8.5t121.5 1.5v101q2 68 -1.5 112.5t-17.5 83.5t-44.5 57.5t-78.5 18.5q-67 0 -106 -24t-51 -48q5 -3 12.5 -9t20 -30t12.5 -55q0 -55 -38 -89t-100 -34q-61 0 -99 35t-38 96q0 105 117.5 166.5 t290.5 61.5q75 0 134.5 -12t99.5 -32t69 -51.5t45 -63.5t25 -74.5t11 -79t1 -83.5l-10 -387q-2 -49 14 -77.5t49 -28.5q26 0 46 22t27 44l7 22l68 -16q-1 -8 -4.5 -20.5t-19.5 -44.5t-40 -57t-70.5 -45t-105.5 -20q-79 0 -136.5 35.5t-82.5 108.5h-4q-80 -152 -281 -152 q-58 0 -110 14.5t-99.5 45t-75.5 87.5t-28 134zM246 1108q82 139 176 307q34 65 64 92t83 27q52 0 82 -27t64 -92q42 -75 86.5 -151.5t68.5 -115.5l23 -40l-39 -33q-136 95 -283 242h-6q-65 -65 -135.5 -125.5t-108.5 -88.5l-38 -28zM352 266q0 -182 133 -182q66 0 118.5 57 t55.5 160l5 158q-124 2 -193.5 -20.5t-94 -63t-24.5 -109.5z" />
<glyph unicode="&#xe3;" horiz-adv-x="1118" d="M76 240q0 55 19 99.5t49 74.5t77.5 51.5t95.5 33.5t112 19t117.5 8.5t121.5 1.5v101q2 68 -1.5 112.5t-17.5 83.5t-44.5 57.5t-78.5 18.5q-67 0 -106 -24t-51 -48q5 -3 12.5 -9t20 -30t12.5 -55q0 -55 -38 -89t-100 -34q-61 0 -99 35t-38 96q0 105 117.5 166.5 t290.5 61.5q75 0 134.5 -12t99.5 -32t69 -51.5t45 -63.5t25 -74.5t11 -79t1 -83.5l-10 -387q-2 -49 14 -77.5t49 -28.5q26 0 46 22t27 44l7 22l68 -16q-1 -8 -4.5 -20.5t-19.5 -44.5t-40 -57t-70.5 -45t-105.5 -20q-79 0 -136.5 35.5t-82.5 108.5h-4q-80 -152 -281 -152 q-58 0 -110 14.5t-99.5 45t-75.5 87.5t-28 134zM227 1165q64 293 234 293q45 0 99 -27.5t105 -55t87 -27.5q74 0 116 118l58 -18q-67 -293 -236 -293q-45 0 -99 28.5t-104.5 56.5t-85.5 28q-73 0 -116 -121zM352 266q0 -182 133 -182q66 0 118.5 57t55.5 160l5 158 q-124 2 -193.5 -20.5t-94 -63t-24.5 -109.5z" />
<glyph unicode="&#xe4;" horiz-adv-x="1118" d="M76 240q0 55 19 99.5t49 74.5t77.5 51.5t95.5 33.5t112 19t117.5 8.5t121.5 1.5v101q2 68 -1.5 112.5t-17.5 83.5t-44.5 57.5t-78.5 18.5q-67 0 -106 -24t-51 -48q5 -3 12.5 -9t20 -30t12.5 -55q0 -55 -38 -89t-100 -34q-61 0 -99 35t-38 96q0 105 117.5 166.5 t290.5 61.5q75 0 134.5 -12t99.5 -32t69 -51.5t45 -63.5t25 -74.5t11 -79t1 -83.5l-10 -387q-2 -49 14 -77.5t49 -28.5q26 0 46 22t27 44l7 22l68 -16q-1 -8 -4.5 -20.5t-19.5 -44.5t-40 -57t-70.5 -45t-105.5 -20q-79 0 -136.5 35.5t-82.5 108.5h-4q-80 -152 -281 -152 q-58 0 -110 14.5t-99.5 45t-75.5 87.5t-28 134zM178 1280q0 67 43 109.5t107 42.5q62 0 104.5 -42.5t42.5 -109.5q0 -65 -42.5 -107.5t-104.5 -42.5q-64 0 -107 42.5t-43 107.5zM352 266q0 -182 133 -182q66 0 118.5 57t55.5 160l5 158q-124 2 -193.5 -20.5t-94 -63 t-24.5 -109.5zM641 1280q0 67 43 109.5t107 42.5q62 0 104.5 -42.5t42.5 -109.5q0 -65 -42.5 -107.5t-104.5 -42.5q-64 0 -107 42.5t-43 107.5z" />
<glyph unicode="&#xe5;" horiz-adv-x="1118" d="M76 240q0 55 19 99.5t49 74.5t77.5 51.5t95.5 33.5t112 19t117.5 8.5t121.5 1.5v101q2 68 -1.5 112.5t-17.5 83.5t-44.5 57.5t-78.5 18.5q-67 0 -106 -24t-51 -48q5 -3 12.5 -9t20 -30t12.5 -55q0 -55 -38 -89t-100 -34q-61 0 -99 35t-38 96q0 105 117.5 166.5 t290.5 61.5q75 0 134.5 -12t99.5 -32t69 -51.5t45 -63.5t25 -74.5t11 -79t1 -83.5l-10 -387q-2 -49 14 -77.5t49 -28.5q26 0 46 22t27 44l7 22l68 -16q-1 -8 -4.5 -20.5t-19.5 -44.5t-40 -57t-70.5 -45t-105.5 -20q-79 0 -136.5 35.5t-82.5 108.5h-4q-80 -152 -281 -152 q-58 0 -110 14.5t-99.5 45t-75.5 87.5t-28 134zM291 1296q0 100 76.5 163t193.5 63q120 0 194 -62t74 -164q0 -100 -73.5 -162.5t-194.5 -62.5q-125 0 -197.5 61t-72.5 164zM352 266q0 -182 133 -182q66 0 118.5 57t55.5 160l5 158q-124 2 -193.5 -20.5t-94 -63 t-24.5 -109.5zM459 1296q0 -72 27 -116.5t75 -44.5q47 0 74 44t27 117q0 75 -27 118.5t-74 43.5q-48 0 -75 -42t-27 -120z" />
<glyph unicode="&#xe6;" horiz-adv-x="1591" d="M68 240q0 63 22 111.5t65.5 81t95.5 54.5t124.5 34.5t139 18t151.5 7.5v20q1 71 -0.5 116t-9.5 91t-23.5 71t-43.5 40.5t-69 15.5q-34 0 -62.5 -7.5t-45.5 -18t-29 -21t-17 -18.5l-4 -7q5 -3 12.5 -9t20.5 -30t13 -55q0 -55 -37 -89t-101 -34q-62 0 -99.5 35.5 t-37.5 95.5q0 105 117 166.5t291 61.5q204 0 297 -90q129 90 292 90q92 0 163.5 -23t115 -59.5t71 -87.5t38 -100.5t10.5 -104.5q0 -25 -2 -52t-4 -41l-2 -14l-590 -6q0 -415 262 -415q51 0 99.5 18t81 43.5t57.5 51t37 43.5l12 18l59 -37q-5 -10 -14.5 -26t-45.5 -57.5 t-78.5 -73t-115.5 -57.5t-154 -26q-307 0 -421 215q-32 -98 -112.5 -159.5t-211.5 -61.5q-65 0 -120 16t-100 48t-71 88t-26 129zM346 266q0 -182 133 -182q63 0 115 49t63 135l7 211h-5q-179 -3 -246 -51.5t-67 -161.5zM932 553l311 6q6 47 6 115q0 227 -137 227 q-166 0 -180 -348z" />
<glyph unicode="&#xe7;" horiz-adv-x="983" d="M72 471q0 107 31.5 193.5t82 143t118 94.5t137 54.5t141.5 16.5q182 0 269 -74t87 -176q0 -73 -46.5 -117.5t-111.5 -44.5q-57 0 -94 36t-37 91q0 42 20.5 71.5t40.5 38.5l21 9q0 30 -31 62t-98 32q-74 0 -124 -34.5t-74 -98.5t-33 -131t-9 -156q0 -413 263 -413 q51 0 99 18t80 43.5t57 51t37 43.5l11 18l60 -37q-5 -10 -14.5 -26t-45.5 -57.5t-78.5 -73t-114.5 -57.5t-153 -26h-14l-12 -84q36 2 72 1.5t69.5 -13t59.5 -32.5t41.5 -56t15.5 -84q0 -61 -35 -111t-92.5 -76.5t-123.5 -33t-135 19t-120 80.5l37 47q55 -42 117.5 -46 t104.5 31t42 97q0 59 -40 83t-108 15l33 166q-196 23 -299.5 151t-103.5 351z" />
<glyph unicode="&#xe8;" d="M72 471q0 105 31 191.5t80.5 142.5t114.5 94.5t131 55t132 16.5q93 0 164.5 -23.5t114.5 -60t70.5 -87t37.5 -99.5t10 -103q0 -26 -2 -53.5t-4 -41.5l-2 -14h-588q1 -43 2.5 -68t7.5 -75t15.5 -82t29.5 -73t46.5 -65t68 -41t93.5 -17q51 0 99 18t80 43.5t57 51t37 43.5 l11 18l60 -37q-5 -10 -14.5 -26t-45.5 -57.5t-78.5 -73t-114.5 -57.5t-153 -26q-237 0 -364 129.5t-127 376.5zM254 1415q0 51 33.5 84t81.5 33q89 0 145 -107l182 -323l-37 -35l-313 211q-92 59 -92 137zM365 559h309q8 52 8 115q0 227 -137 227q-162 0 -180 -342z" />
<glyph unicode="&#xe9;" d="M72 471q0 105 31 191.5t80.5 142.5t114.5 94.5t131 55t132 16.5q93 0 164.5 -23.5t114.5 -60t70.5 -87t37.5 -99.5t10 -103q0 -26 -2 -53.5t-4 -41.5l-2 -14h-588q1 -43 2.5 -68t7.5 -75t15.5 -82t29.5 -73t46.5 -65t68 -41t93.5 -17q51 0 99 18t80 43.5t57 51t37 43.5 l11 18l60 -37q-5 -10 -14.5 -26t-45.5 -57.5t-78.5 -73t-114.5 -57.5t-153 -26q-237 0 -364 129.5t-127 376.5zM365 559h309q8 52 8 115q0 227 -137 227q-162 0 -180 -342zM401 1102l181 323q49 105 145 105q47 0 80 -32t33 -79q0 -83 -90 -141l-312 -211z" />
<glyph unicode="&#xea;" d="M72 471q0 105 31 191.5t80.5 142.5t114.5 94.5t131 55t132 16.5q93 0 164.5 -23.5t114.5 -60t70.5 -87t37.5 -99.5t10 -103q0 -26 -2 -53.5t-4 -41.5l-2 -14h-588q1 -43 2.5 -68t7.5 -75t15.5 -82t29.5 -73t46.5 -65t68 -41t93.5 -17q51 0 99 18t80 43.5t57 51t37 43.5 l11 18l60 -37q-5 -10 -14.5 -26t-45.5 -57.5t-78.5 -73t-114.5 -57.5t-153 -26q-237 0 -364 129.5t-127 376.5zM240 1108q82 139 176 307q34 65 64 92t83 27q52 0 82 -27t64 -92q42 -75 86.5 -151.5t68.5 -115.5l23 -40l-39 -33q-136 95 -283 242h-6q-65 -65 -136 -125.5 t-109 -88.5l-38 -28zM365 559h309q8 52 8 115q0 227 -137 227q-162 0 -180 -342z" />
<glyph unicode="&#xeb;" d="M72 471q0 105 31 191.5t80.5 142.5t114.5 94.5t131 55t132 16.5q93 0 164.5 -23.5t114.5 -60t70.5 -87t37.5 -99.5t10 -103q0 -26 -2 -53.5t-4 -41.5l-2 -14h-588q1 -43 2.5 -68t7.5 -75t15.5 -82t29.5 -73t46.5 -65t68 -41t93.5 -17q51 0 99 18t80 43.5t57 51t37 43.5 l11 18l60 -37q-5 -10 -14.5 -26t-45.5 -57.5t-78.5 -73t-114.5 -57.5t-153 -26q-237 0 -364 129.5t-127 376.5zM178 1280q0 67 43 109.5t107 42.5q62 0 104.5 -42.5t42.5 -109.5q0 -65 -42.5 -107.5t-104.5 -42.5q-64 0 -107 42.5t-43 107.5zM365 559h309q8 52 8 115 q0 227 -137 227q-162 0 -180 -342zM641 1280q0 67 43 109.5t107 42.5q62 0 104.5 -42.5t42.5 -109.5q0 -65 -42.5 -107.5t-104.5 -42.5q-64 0 -107 42.5t-43 107.5z" />
<glyph unicode="&#xec;" horiz-adv-x="632" d="M57 -4v70l140 10v676q0 24 -3 41.5t-6.5 30t-14 20t-18 12t-27 6t-31 2t-40.5 0.5v70l410 20v-878l139 -10v-70q-46 0 -129 4t-145 4t-144.5 -4t-130.5 -4zM61 1415q0 51 33.5 84t81.5 33q90 0 146 -107l182 -323l-37 -35l-313 211q-93 59 -93 137z" />
<glyph unicode="&#xed;" horiz-adv-x="632" d="M57 -4v70l140 10v676q0 24 -3 41.5t-6.5 30t-14 20t-18 12t-27 6t-31 2t-40.5 0.5v70l410 20v-878l139 -10v-70q-46 0 -129 4t-145 4t-144.5 -4t-130.5 -4zM174 1102l180 323q23 50 61 77.5t85 27.5t79.5 -32t32.5 -79q0 -83 -90 -141l-311 -211z" />
<glyph unicode="&#xee;" horiz-adv-x="632" d="M2 1108q82 139 176 307q34 65 64.5 92t83.5 27q52 0 81.5 -27t63.5 -92q42 -75 86.5 -151.5t68.5 -115.5l23 -40l-39 -33q-135 95 -282 242h-6q-65 -65 -136 -125.5t-109 -88.5l-38 -28zM57 -4v70l140 10v676q0 24 -3 41.5t-6.5 30t-14 20t-18 12t-27 6t-31 2t-40.5 0.5 v70l410 20v-878l139 -10v-70q-46 0 -129 4t-145 4t-144.5 -4t-130.5 -4z" />
<glyph unicode="&#xef;" horiz-adv-x="632" d="M-27 1315q0 70 44.5 114t111.5 44q66 0 111 -44.5t45 -113.5t-45 -113.5t-111 -44.5q-67 0 -111.5 44t-44.5 114zM57 -4v70l140 10v676q0 24 -3 41.5t-6.5 30t-14 20t-18 12t-27 6t-31 2t-40.5 0.5v70l410 20v-878l139 -10v-70q-46 0 -129 4t-145 4t-144.5 -4t-130.5 -4z M381 1315q0 70 44.5 114t111.5 44q66 0 110.5 -44.5t44.5 -113.5t-44.5 -113.5t-110.5 -44.5q-67 0 -111.5 44t-44.5 114z" />
<glyph unicode="&#xf0;" horiz-adv-x="1107" d="M51 457q0 122 40 221.5t106.5 162t149.5 95.5t173 33q138 0 213 -56q-39 144 -123 254l-258 -118l-33 69l238 109q-112 112 -283 174l23 61q223 -50 391 -174l221 101l35 -70l-188 -86q295 -261 295 -676q0 -131 -29 -236.5t-87.5 -185t-155.5 -123t-226 -43.5 q-234 0 -368 120.5t-134 367.5zM350 485q0 -226 47.5 -336t155.5 -110q42 0 76 18.5t56 46.5t38.5 73.5t25.5 87t15 101t7.5 101t2.5 100.5q0 156 -53.5 237t-157.5 81q-60 0 -103.5 -35.5t-66.5 -96t-33 -126.5t-10 -142z" />
<glyph unicode="&#xf1;" horiz-adv-x="1265" d="M57 -4v70l140 10v680q0 27 -2.5 45.5t-11.5 31t-16 18.5t-28 9t-34.5 3.5t-47.5 0.5v70l394 20l4 -178h2q121 195 342 195q136 0 215.5 -89t79.5 -274v-532l141 -10v-70q-48 0 -130 4t-144 4t-142.5 -4t-128.5 -4v70l135 10v473q0 171 -26.5 236t-106.5 65 q-83 0 -154 -89.5t-71 -230.5v-454l135 -10v-70q-46 0 -127 4t-143 4t-144.5 -4t-130.5 -4zM311 1165q64 293 234 293q45 0 99 -27.5t105 -55t87 -27.5q74 0 116 118l58 -18q-67 -293 -236 -293q-45 0 -99 28.5t-104.5 56.5t-85.5 28q-73 0 -116 -121z" />
<glyph unicode="&#xf2;" horiz-adv-x="1140" d="M72 459q0 126 40.5 225.5t110 160.5t158 92.5t188.5 31.5q103 0 191 -28.5t158.5 -85.5t110.5 -153.5t40 -222.5q0 -127 -40 -226.5t-109.5 -160.5t-158.5 -92t-192 -31q-82 0 -154 17t-135.5 55t-109 94t-72 139t-26.5 185zM281 1415q0 52 33 84.5t81 32.5 q90 0 146 -107l182 -323l-37 -35l-313 211q-92 59 -92 137zM371 469q0 -216 47 -323t151 -107q106 0 153.5 107t47.5 323q0 215 -47.5 322.5t-153.5 107.5q-103 0 -150.5 -107.5t-47.5 -322.5z" />
<glyph unicode="&#xf3;" horiz-adv-x="1140" d="M72 459q0 126 40.5 225.5t110 160.5t158 92.5t188.5 31.5q103 0 191 -28.5t158.5 -85.5t110.5 -153.5t40 -222.5q0 -127 -40 -226.5t-109.5 -160.5t-158.5 -92t-192 -31q-82 0 -154 17t-135.5 55t-109 94t-72 139t-26.5 185zM371 469q0 -216 47 -323t151 -107 q106 0 153.5 107t47.5 323q0 215 -47.5 322.5t-153.5 107.5q-103 0 -150.5 -107.5t-47.5 -322.5zM446 1102l181 323q49 105 145 105q47 0 80 -32t33 -79q0 -83 -90 -141l-312 -211z" />
<glyph unicode="&#xf4;" horiz-adv-x="1140" d="M72 459q0 126 40.5 225.5t110 160.5t158 92.5t188.5 31.5q103 0 191 -28.5t158.5 -85.5t110.5 -153.5t40 -222.5q0 -127 -40 -226.5t-109.5 -160.5t-158.5 -92t-192 -31q-82 0 -154 17t-135.5 55t-109 94t-72 139t-26.5 185zM250 1108q82 139 176 307q34 65 64 92t83 27 q52 0 82 -27t64 -92q42 -75 86.5 -151.5t68.5 -115.5l23 -40l-39 -33q-136 95 -283 242h-6q-65 -65 -135.5 -125.5t-108.5 -88.5l-38 -28zM371 469q0 -216 47 -323t151 -107q106 0 153.5 107t47.5 323q0 215 -47.5 322.5t-153.5 107.5q-103 0 -150.5 -107.5t-47.5 -322.5z " />
<glyph unicode="&#xf5;" horiz-adv-x="1140" d="M72 459q0 126 40.5 225.5t110 160.5t158 92.5t188.5 31.5q103 0 191 -28.5t158.5 -85.5t110.5 -153.5t40 -222.5q0 -127 -40 -226.5t-109.5 -160.5t-158.5 -92t-192 -31q-82 0 -154 17t-135.5 55t-109 94t-72 139t-26.5 185zM250 1165q64 293 233 293q45 0 99 -27.5 t105 -55t87 -27.5q75 0 117 118l57 -18q-67 -293 -235 -293q-45 0 -99 28.5t-104.5 56.5t-85.5 28q-74 0 -117 -121zM371 469q0 -216 47 -323t151 -107q106 0 153.5 107t47.5 323q0 215 -47.5 322.5t-153.5 107.5q-103 0 -150.5 -107.5t-47.5 -322.5z" />
<glyph unicode="&#xf6;" horiz-adv-x="1140" d="M72 459q0 126 40.5 225.5t110 160.5t158 92.5t188.5 31.5q103 0 191 -28.5t158.5 -85.5t110.5 -153.5t40 -222.5q0 -127 -40 -226.5t-109.5 -160.5t-158.5 -92t-192 -31q-82 0 -154 17t-135.5 55t-109 94t-72 139t-26.5 185zM197 1280q0 67 42.5 109.5t106.5 42.5 q62 0 105 -43t43 -109q0 -65 -43 -107.5t-105 -42.5q-64 0 -106.5 42.5t-42.5 107.5zM371 469q0 -216 47 -323t151 -107q106 0 153.5 107t47.5 323q0 215 -47.5 322.5t-153.5 107.5q-103 0 -150.5 -107.5t-47.5 -322.5zM659 1280q0 67 43 109.5t107 42.5q62 0 104.5 -42.5 t42.5 -109.5q0 -65 -42.5 -107.5t-104.5 -42.5q-64 0 -107 42.5t-43 107.5z" />
<glyph unicode="&#xf7;" horiz-adv-x="1187" d="M113 508v98h962v-98h-962zM414 168q0 72 52.5 122t127.5 50q72 0 122 -50t50 -122q0 -73 -50 -122.5t-122 -49.5q-75 0 -127.5 49.5t-52.5 122.5zM414 938q0 72 52.5 122t127.5 50q72 0 122 -50t50 -122t-50 -121t-122 -49q-75 0 -127.5 49t-52.5 121z" />
<glyph unicode="&#xf8;" horiz-adv-x="1132" d="M68 459q0 126 40.5 225.5t110 160.5t158 92.5t188.5 31.5q161 0 281 -66l137 178l53 -39l-135 -176q164 -131 164 -387q0 -127 -40 -226.5t-109.5 -160.5t-158.5 -92t-192 -31q-171 0 -293 74l-135 -178l-55 41l135 176q-149 130 -149 377zM354 469q0 -104 13 -193 l372 488q-51 135 -174 135q-111 0 -161 -107.5t-50 -322.5zM387 190q47 -151 178 -151q114 0 163.5 106.5t49.5 323.5q0 134 -16 215z" />
<glyph unicode="&#xf9;" horiz-adv-x="1228" d="M25 864v70l409 20v-563q0 -59 1 -91.5t5 -72t12 -59.5t22.5 -39.5t37 -27t53.5 -7.5q83 0 155.5 89.5t72.5 230.5v338q0 28 -3.5 47.5t-13 32t-18 19t-28.5 9.5t-32.5 3.5t-42.5 0.5v70l408 20v-876l139 -4v-70l-393 -20l-6 182h-2q-53 -88 -139.5 -140.5t-202.5 -52.5 q-158 0 -226.5 83t-68.5 261v435q0 24 -3 41.5t-6 30t-13.5 20t-17.5 12t-26.5 6t-31.5 2t-41 0.5zM315 1415q0 51 33.5 84t81.5 33q89 0 145 -107l183 -323l-37 -35l-313 211q-93 59 -93 137z" />
<glyph unicode="&#xfa;" horiz-adv-x="1228" d="M25 864v70l409 20v-563q0 -59 1 -91.5t5 -72t12 -59.5t22.5 -39.5t37 -27t53.5 -7.5q83 0 155.5 89.5t72.5 230.5v338q0 28 -3.5 47.5t-13 32t-18 19t-28.5 9.5t-32.5 3.5t-42.5 0.5v70l408 20v-876l139 -4v-70l-393 -20l-6 182h-2q-53 -88 -139.5 -140.5t-202.5 -52.5 q-158 0 -226.5 83t-68.5 261v435q0 24 -3 41.5t-6 30t-13.5 20t-17.5 12t-26.5 6t-31.5 2t-41 0.5zM487 1102l181 323q49 105 145 105q47 0 80 -32t33 -79q0 -83 -90 -141l-312 -211z" />
<glyph unicode="&#xfb;" horiz-adv-x="1228" d="M25 864v70l409 20v-563q0 -59 1 -91.5t5 -72t12 -59.5t22.5 -39.5t37 -27t53.5 -7.5q83 0 155.5 89.5t72.5 230.5v338q0 28 -3.5 47.5t-13 32t-18 19t-28.5 9.5t-32.5 3.5t-42.5 0.5v70l408 20v-876l139 -4v-70l-393 -20l-6 182h-2q-53 -88 -139.5 -140.5t-202.5 -52.5 q-158 0 -226.5 83t-68.5 261v435q0 24 -3 41.5t-6 30t-13.5 20t-17.5 12t-26.5 6t-31.5 2t-41 0.5zM301 1108q82 139 176 307q34 65 64.5 92t83.5 27q52 0 81.5 -27t63.5 -92q42 -75 86.5 -151.5t67.5 -115.5l24 -40l-39 -33q-135 95 -282 242h-6q-65 -65 -136 -125.5 t-109 -88.5l-38 -28z" />
<glyph unicode="&#xfc;" horiz-adv-x="1228" d="M25 864v70l409 20v-563q0 -59 1 -91.5t5 -72t12 -59.5t22.5 -39.5t37 -27t53.5 -7.5q83 0 155.5 89.5t72.5 230.5v338q0 28 -3.5 47.5t-13 32t-18 19t-28.5 9.5t-32.5 3.5t-42.5 0.5v70l408 20v-876l139 -4v-70l-393 -20l-6 182h-2q-53 -88 -139.5 -140.5t-202.5 -52.5 q-158 0 -226.5 83t-68.5 261v435q0 24 -3 41.5t-6 30t-13.5 20t-17.5 12t-26.5 6t-31.5 2t-41 0.5zM240 1280q0 67 42.5 109.5t106.5 42.5q63 0 105.5 -43t42.5 -109q0 -65 -43 -107.5t-105 -42.5q-64 0 -106.5 42.5t-42.5 107.5zM702 1280q0 67 43 109.5t107 42.5 q62 0 104.5 -42.5t42.5 -109.5q0 -65 -42.5 -107.5t-104.5 -42.5q-64 0 -107 42.5t-43 107.5z" />
<glyph unicode="&#xfd;" horiz-adv-x="1071" d="M-35 872v70q56 0 133.5 -4t128.5 -4q46 0 127.5 4t153.5 4v-70l-127 -10l258 -604h2l135 348q29 78 35.5 129.5t-11.5 82t-54 42.5t-97 12v70q46 0 115 -4t121 -4q38 0 104 4t115 4v-70q-89 -3 -140.5 -58t-111.5 -210l-205 -526q-19 -50 -43 -117t-38.5 -109 t-35.5 -94.5t-38.5 -84t-43.5 -65.5t-53.5 -52t-64.5 -29.5t-82 -11.5q-112 0 -171 56.5t-59 131.5q0 58 38 101.5t100 43.5q54 0 87 -32t33 -86q0 -24 -8 -45.5t-16 -30.5l-8 -10q12 -25 55 -25q52 0 94 48t80 145l43 112l-426 938zM463 1102l180 323q49 105 145 105 q47 0 80 -32t33 -79q0 -83 -90 -141l-311 -211z" />
<glyph unicode="&#xfe;" horiz-adv-x="1167" d="M10 -401l142 10v1642q0 41 -8 65t-30 34t-41 12t-61 2v70l402 20v-670h2q48 83 129 133t192 50q175 0 269 -128t94 -339q0 -119 -30 -213t-76.5 -150t-108.5 -93t-118.5 -50.5t-113.5 -13.5q-149 0 -235 65h-2v-436l147 -10v-70q-46 0 -135.5 4t-151.5 4q-61 0 -139.5 -4 t-126.5 -4v70zM420 131q68 -68 172 -68q37 0 68 9.5t61.5 36.5t51 70.5t33.5 117t13 170.5q0 82 -8 145t-26.5 118t-55.5 84.5t-90 29.5q-82 0 -150.5 -86t-68.5 -217v-410z" />
<glyph unicode="&#xff;" horiz-adv-x="1071" d="M-35 872v70q56 0 133.5 -4t128.5 -4q46 0 127.5 4t153.5 4v-70l-127 -10l258 -604h2l135 348q29 78 35.5 129.5t-11.5 82t-54 42.5t-97 12v70q46 0 115 -4t121 -4q38 0 104 4t115 4v-70q-89 -3 -140.5 -58t-111.5 -210l-205 -526q-19 -50 -43 -117t-38.5 -109 t-35.5 -94.5t-38.5 -84t-43.5 -65.5t-53.5 -52t-64.5 -29.5t-82 -11.5q-112 0 -171 56.5t-59 131.5q0 58 38 101.5t100 43.5q54 0 87 -32t33 -86q0 -24 -8 -45.5t-16 -30.5l-8 -10q12 -25 55 -25q52 0 94 48t80 145l43 112l-426 938zM201 1280q0 67 42.5 109.5t106.5 42.5 q62 0 105 -43t43 -109q0 -65 -43 -107.5t-105 -42.5q-64 0 -106.5 42.5t-42.5 107.5zM664 1280q0 67 42.5 109.5t106.5 42.5q63 0 105.5 -43t42.5 -109q0 -65 -43 -107.5t-105 -42.5q-64 0 -106.5 42.5t-42.5 107.5z" />
<glyph unicode="&#x152;" horiz-adv-x="1888" d="M92 639q0 160 53.5 289t145 210t210 124t253.5 43q61 0 172 -8.5t164 -8.5q96 0 343.5 3t311.5 3l20 -420h-71l-13 66q-9 46 -33 93.5t-61 91t-93 71t-120 27.5h-184v-521l143 7q41 3 73.5 22.5t49 45.5t25 47.5t8.5 33.5h72v-430h-72q0 15 -8.5 44t-25.5 66.5 t-53.5 66.5t-84.5 32h-127v-565h172q65 0 123.5 22.5t100.5 58t75 81t52 90t26 86.5l6 36h70l-13 -450q-84 0 -357 4t-370 4q-42 0 -161.5 -8t-204.5 -8q-157 -1 -276.5 46t-193 134t-110.5 205t-37 266zM422 631q0 -74 4.5 -136t16.5 -134.5t36.5 -126.5t61 -98.5 t93.5 -64.5t130 -12l127 11v1159l-103 6q-100 9 -173 -34t-114 -129t-60 -195t-19 -246z" />
<glyph unicode="&#x153;" horiz-adv-x="1693" d="M63 459q0 126 42 225.5t113.5 160.5t160.5 92.5t190 31.5q218 0 340 -131q59 65 145.5 99t174.5 34q94 0 167 -23.5t115.5 -60t70 -87.5t37 -99.5t9.5 -102.5q0 -22 -2 -48.5t-4 -41.5l-2 -16h-590v-7q0 -417 262 -417q51 0 99.5 18t81 43.5t57.5 51t37 43.5l12 18 l59 -37q-5 -10 -14.5 -26t-45 -57.5t-78.5 -73t-115.5 -57.5t-153.5 -26q-226 0 -350 137q-53 -63 -136 -98t-184 -35q-103 0 -190.5 28t-157.5 85t-110 153.5t-40 223.5zM362 469q0 -430 199 -430q106 0 153.5 107.5t47.5 322.5q0 219 -44.5 324.5t-148.5 105.5 q-102 0 -154.5 -108.5t-52.5 -321.5zM1032 559h311q7 51 7 117q0 225 -136 225q-167 0 -182 -342z" />
<glyph unicode="&#x178;" horiz-adv-x="1318" d="M-2 1225v69q58 0 154 -4t147 -4q46 0 154 4t180 4v-69l-162 -11l291 -561h8q28 68 170 334q64 127 33 182.5t-158 55.5v69q51 0 138.5 -4t138.5 -4q37 0 108 4t125 4v-69q-96 0 -166 -54t-137 -190q-138 -254 -168 -328q-49 -118 -49 -235v-344l162 -8v-70 q-46 0 -163.5 4t-146.5 4t-146 -4t-163 -4v70l162 8v448l-371 692zM330 1565q0 66 42.5 107.5t106.5 41.5q63 0 105.5 -41.5t42.5 -107.5t-42.5 -108t-105.5 -42q-64 0 -106.5 41.5t-42.5 108.5zM793 1565q0 66 42.5 107.5t106.5 41.5q63 0 105.5 -41.5t42.5 -107.5 t-42.5 -108t-105.5 -42q-64 0 -106.5 41.5t-42.5 108.5z" />
<glyph unicode="&#x2c6;" d="M195 1108q82 139 176 307q34 65 64 92t83 27q52 0 82 -27t64 -92q42 -75 86.5 -151.5t67.5 -115.5l24 -40l-39 -33q-136 95 -283 242h-6q-65 -65 -136 -125.5t-109 -88.5l-38 -28z" />
<glyph unicode="&#x2dc;" d="M170 1165q64 293 233 293q45 0 99 -27.5t105 -55t87 -27.5q75 0 117 118l57 -18q-67 -293 -235 -293q-45 0 -99 28.5t-104.5 56.5t-85.5 28q-74 0 -117 -121z" />
<glyph unicode="&#x2000;" horiz-adv-x="897" />
<glyph unicode="&#x2001;" horiz-adv-x="1794" />
<glyph unicode="&#x2002;" horiz-adv-x="897" />
<glyph unicode="&#x2003;" horiz-adv-x="1794" />
<glyph unicode="&#x2004;" horiz-adv-x="598" />
<glyph unicode="&#x2005;" horiz-adv-x="448" />
<glyph unicode="&#x2006;" horiz-adv-x="299" />
<glyph unicode="&#x2007;" horiz-adv-x="299" />
<glyph unicode="&#x2008;" horiz-adv-x="224" />
<glyph unicode="&#x2009;" horiz-adv-x="358" />
<glyph unicode="&#x200a;" horiz-adv-x="99" />
<glyph unicode="&#x2010;" horiz-adv-x="765" d="M82 446v148h602v-148h-602z" />
<glyph unicode="&#x2011;" horiz-adv-x="765" d="M82 446v148h602v-148h-602z" />
<glyph unicode="&#x2012;" horiz-adv-x="765" d="M82 446v148h602v-148h-602z" />
<glyph unicode="&#x2013;" horiz-adv-x="1110" d="M104 467v131h904v-131h-904z" />
<glyph unicode="&#x2014;" horiz-adv-x="1904" d="M152 455v131h1601v-131h-1601z" />
<glyph unicode="&#x2018;" horiz-adv-x="423" d="M35 1110q0 122 83 224.5t242 156.5l29 -53q-100 -50 -145 -112t-45 -114l2 -26q74 0 127 -36t53 -108q0 -63 -45.5 -104t-118.5 -41q-85 0 -133.5 59.5t-48.5 153.5z" />
<glyph unicode="&#x2019;" horiz-adv-x="423" d="M41 950q101 50 145.5 112.5t44.5 113.5l-2 26q-74 0 -126 35.5t-52 108.5q0 64 45 104.5t119 40.5q83 0 132.5 -59.5t49.5 -153.5q0 -122 -84 -224.5t-243 -156.5z" />
<glyph unicode="&#x201a;" horiz-adv-x="589" d="M115 -252q102 50 147 112.5t45 114.5l-4 25q-74 0 -126 35.5t-52 109.5q0 62 45.5 103t118.5 41q83 0 132.5 -59t49.5 -152q0 -122 -83.5 -225.5t-242.5 -157.5z" />
<glyph unicode="&#x201c;" horiz-adv-x="839" d="M31 1110q0 122 83.5 224.5t241.5 156.5l31 -53q-102 -50 -147 -112t-45 -114l4 -26q74 0 126 -35.5t52 -108.5q0 -63 -45.5 -104t-118.5 -41q-83 0 -132.5 59.5t-49.5 153.5zM446 1110q0 121 84 224t242 157l31 -53q-102 -50 -146.5 -112t-44.5 -114l2 -26 q74 0 126.5 -36t52.5 -108q0 -64 -45 -104.5t-119 -40.5q-83 0 -133 59.5t-50 153.5z" />
<glyph unicode="&#x201d;" horiz-adv-x="839" d="M37 950q70 34 115.5 79t61 80.5t15.5 66.5l-4 26q-74 0 -126 35.5t-52 108.5q0 63 45.5 104t118.5 41q83 0 132.5 -59.5t49.5 -153.5q0 -122 -83 -224.5t-242 -156.5zM453 950q70 34 115.5 79t61 80.5t15.5 66.5l-4 26q-74 0 -126 35.5t-52 108.5q0 63 45.5 104t118.5 41 q85 0 133.5 -59.5t48.5 -153.5q0 -122 -83.5 -224.5t-242.5 -156.5z" />
<glyph unicode="&#x201e;" horiz-adv-x="1007" d="M115 -252q102 50 147 112.5t45 114.5l-4 25q-74 0 -126 35.5t-52 109.5q0 62 45.5 103t118.5 41q83 0 132.5 -59t49.5 -152q0 -122 -83.5 -225.5t-242.5 -157.5zM530 -252q102 50 147.5 112.5t45.5 114.5l-4 25q-74 0 -126 35.5t-52 109.5q0 62 45.5 103t118.5 41 q84 0 133 -59t49 -152q0 -122 -83.5 -225.5t-242.5 -157.5z" />
<glyph unicode="&#x2022;" horiz-adv-x="921" d="M166 524q0 123 86 209t209 86t209 -86t86 -209t-86 -209t-209 -86t-209 86t-86 209z" />
<glyph unicode="&#x2026;" horiz-adv-x="1777" d="M139 137q0 69 46 114.5t114 45.5q69 0 115.5 -45.5t46.5 -114.5t-46 -113t-116 -44q-68 0 -114 44.5t-46 112.5zM705 137q0 69 46.5 114.5t114.5 45.5t115 -46t47 -114t-47 -112.5t-115 -44.5t-114.5 44.5t-46.5 112.5zM1272 137q0 69 46 114.5t114 45.5q69 0 115 -45.5 t46 -114.5t-46 -113t-115 -44q-68 0 -114 44.5t-46 112.5z" />
<glyph unicode="&#x202f;" horiz-adv-x="358" />
<glyph unicode="&#x2039;" horiz-adv-x="716" d="M117 471q0 44 24 78.5t78 66.5q83 57 171 129t134 115l47 43l50 -41q-16 -26 -43.5 -69t-102.5 -147t-139 -173v-4q64 -69 135 -166.5t111 -160.5l39 -62l-50 -41q-166 158 -352 287q-54 32 -78 66.5t-24 78.5z" />
<glyph unicode="&#x203a;" horiz-adv-x="722" d="M102 80q16 26 43.5 69t102.5 147t139 173v4q-64 69 -135 166.5t-110 160.5l-40 62l50 41q166 -158 350 -287q55 -32 79.5 -66.5t24.5 -78.5t-24.5 -78.5t-79.5 -66.5q-82 -57 -169.5 -129t-134.5 -115l-46 -43z" />
<glyph unicode="&#x205f;" horiz-adv-x="448" />
<glyph unicode="&#x20ac;" horiz-adv-x="1337" d="M55 463v76h138q-3 37 -3 75q0 33 3 60h-138v76h144q17 152 73.5 265.5t143.5 180.5t191 99t227 32q190 0 295.5 -82.5t105.5 -204.5q0 -81 -50 -128.5t-120 -47.5q-65 0 -107.5 39t-42.5 103q0 28 7.5 52t18.5 38t22 23.5t19 13.5l7 4q-8 44 -51 80t-135 36 q-65 0 -117.5 -27t-88.5 -73t-60.5 -110.5t-37 -137t-14.5 -155.5h484v-76h-484q3 -70 9 -135h475v-76h-463q73 -361 371 -361q72 0 134.5 26.5t100 64.5t64.5 76t38 65l11 26l61 -30q-2 -8 -6.5 -21.5t-23.5 -52.5t-42.5 -75t-66 -79.5t-92.5 -74.5t-123.5 -52.5 t-157.5 -21.5q-134 0 -238 38.5t-171.5 109.5t-107.5 160.5t-56 201.5h-146z" />
<glyph unicode="&#x2122;" horiz-adv-x="1298" d="M82 1112l10 178q35 0 111 -1t110 -1t109 1t110 1l9 -178h-45l-9 33q-14 52 -32.5 75t-59.5 23h-18v-348l80 -4v-47q-26 0 -75 2t-71 2t-69.5 -2t-73.5 -2v47l80 4v348h-19q-40 0 -60.5 -23.5t-33.5 -74.5l-8 -33h-45zM565 844v47q57 0 71.5 13t14.5 75v262l-71 4v43h235 l82 -258h8l90 260h222v-45l-72 -4v-350h72v-47q-20 0 -71 2t-69 2q-12 0 -50 -2t-58 -2v49h63v334h-6l-131 -379h-41l-135 379h-6v-248q0 -64 10 -76t63 -12v-47q-24 0 -57.5 2t-48.5 2q-16 0 -53 -2t-62 -2z" />
<glyph unicode="&#x25fc;" horiz-adv-x="942" d="M0 0v942h942v-942h-942z" />
</font>
</defs>
</svg>
